• Для скачивания альбомов c Облако Mail.Ru и Яндекс.Диск на нашем сайте необходимо зарегистрироваться.
  • Заказать необходимый альбом Вы можете в нашем специальном разделе "Стол заказов ".
Jennifer Thomas - The Fire Within (2018) [WEB / FLAC / lossless]

Jennifer Thomas - The Fire Within (2018) [WEB / FLAC / lossless]

нет прав для скачивания с cloud.mail.ru

Исполнитель: Jennifer Thomas
Альбом: The Fire Within
Носитель: WEB альбом
Дата выпуска: 2018
Жанр: Neoclassical, Piano
Формат: FLAC (tracks)
Битрейт: 700-860 kbps
Продолжительность: 00:45:06
Пароль на архив: grandorchestra

Треклист:
01. The Fire Within (feat. The Rogue Pianist) [00:05:21]
02.
Awakening [00:05:00]
03.
Girl in the Mirror [00:03:49]
04.
Rise of the Phoenix [00:04:04]
05.
Ascension [00:04:26]
06.
Soaring (feat. Eurielle) [00:05:30]
07.
Because of You [00:04:15]
08.
Believer [00:04:12]
09.
Time [00:04:38]
10.
Glorious [00:03:46]

foobar2000 1.3.9 / Замер динамического диапазона (DR) 1.1.1
Дата отчёта: 2018-10-13 21:23:09

--------------------------------------------------------------------------------
Анализ: Jennifer Thomas / The Fire Within
--------------------------------------------------------------------------------

DR Пики RMS Продолжительность трека
--------------------------------------------------------------------------------
DR8 -0.10 дБ -10.33 дБ 5:21 01-The Fire Within (feat. The Rogue Pianist)
DR7 -0.10 дБ -10.81 дБ 5:01 02-Awakening
DR7 -0.10 дБ -12.40 дБ 3:49 03-Girl in the Mirror
DR6 -0.10 дБ -8.94 дБ 4:05 04-Rise of the Phoenix
DR7 -0.10 дБ -10.36 дБ 4:26 05-Ascension
DR7 -0.10 дБ -10.23 дБ 5:31 06-Soaring (feat. Eurielle)
DR8 -0.10 дБ -12.38 дБ 4:16 07-Because of You
DR8 -0.10 дБ -10.51 дБ 4:13 08-Believer
DR8 -0.10 дБ -12.61 дБ 4:39 09-Time
DR8 -0.10 дБ -11.62 дБ 3:46 10-Glorious
--------------------------------------------------------------------------------

Количество треков: 10
Реальные значения DR: DR7

Частота: 44100 Гц
Каналов: 2
Разрядность: 16
Битрейт: 802 кбит/с
Кодек: FLAC
================================================================================
-----------------------

DON'T MODIFY THIS FILE

-----------------------

PERFORMER: auCDtect Task Manager, ver. 1.6.0 RC1 build 1.6.0.1
Copyright (c) 2008-2010 y-soft. All rights reserved
http://y-soft.org

ANALYZER: auCDtect: CD records authenticity detector, version 0.8.2
Copyright (c) 2004 Oleg Berngardt. All rights reserved.
Copyright (c) 2004 Alexander Djourik. All rights reserved.


FILE: 10. Glorious.flac
Size: 22803409 Hash: 4C66C669CF0FE04DF75822098788178D Accuracy: -m0
Conclusion: CDDA 100%
Signature: 0D0CB7EBFF4819D4E6D1A97009F8E152AE80BDD2
FILE: 09. Time.flac
Size: 24524608 Hash: DA5E85A3CF57ED4D42CC35E0B6A1D285 Accuracy: -m0
Conclusion: CDDA 100%
Signature: 9BD2F29638A86E0539D8819B2FCDD17012D88998
FILE: 08. Believer.flac
Size: 27280103 Hash: 8BE6A47971AED4C90A3EA7321FCD18AE Accuracy: -m0
Conclusion: CDDA 100%
Signature: C85E9CE37B75480A13F86B3EAFB83A39867369CE
FILE: 07. Because of You.flac
Size: 23755895 Hash: 2B0539F4F997467EB99344CB7B855551 Accuracy: -m0
Conclusion: CDDA 100%
Signature: 06A0C42DB1788B264A3C5662759E58739D195051
FILE: 06. Soaring (feat. Eurielle).flac
Size: 33725531 Hash: 6A846694D7C66311EE52C8F224F7D533 Accuracy: -m0
Conclusion: CDDA 99%
Signature: EA57D6484B829EDECBD7723C3AA969323CCC2F3E
FILE: 05. Ascension.flac
Size: 27478750 Hash: 9B958B82DB1A9220295C5CE37D1861E7 Accuracy: -m0
Conclusion: CDDA 100%
Signature: 3548A521620F6D0274DCF50D040D35CF61E1BBAD
FILE: 04. Rise of the Phoenix.flac
Size: 25651695 Hash: 956FC867078236FADC2F7A3D8D095333 Accuracy: -m0
Conclusion: CDDA 99%
Signature: 9D52E03D11E635FC1BFF96931410E58816846EA3
FILE: 03. Girl in the Mirror.flac
Size: 20623243 Hash: B9A2A7885A9FDC74FE75D29BDE06F332 Accuracy: -m0
Conclusion: CDDA 42%
Signature: D865CD3B72C4B9A5735BB2517935F8A8DC1A3E68
FILE: 02. Awakening.flac
Size: 30212503 Hash: 1BBEA1E7DA2516B2133E103609E612E1 Accuracy: -m0
Conclusion: CDDA 99%
Signature: 5DD1435005E2A66FCE9811ABE079E2714A86B505
FILE: 01. The Fire Within (feat. The Rogue Pianist).flac
Size: 32955914 Hash: CF879C6AE2335AD83F409B213E0E1FB6 Accuracy: -m0
Conclusion: CDDA 100%
Signature: EF973A689CE58093C22529A0FDA9E1F3C54D49EF
Вверх