• Для скачивания альбомов c Облако Mail.Ru и Яндекс.Диск на нашем сайте необходимо зарегистрироваться.
  • Заказать необходимый альбом Вы можете в нашем специальном разделе "Стол заказов ".
Jason Isbell and the 400 Unit - Live from the Ryman (2018) [WEB / FLAC / lossless]

Jason Isbell and the 400 Unit - Live from the Ryman (2018) [WEB / FLAC / lossless]

нет прав для скачивания с cloud.mail.ru

Исполнитель: Jason Isbell and the 400 Unit
Альбом: Live from the Ryman
Носитель: WEB альбом
Дата выпуска: 2018
Жанр: Rock
Формат: FLAC (tracks)
Битрейт: 724-1022 kbps
Продолжительность: 00:58:49
Скачать: filehost | turbobit | dfiles
Пароль на архив: grandorchestra

Треклист:
01. Hope the High Road (Live) [00:03:04]
02.
24 Frames (Live) [00:03:12]
03.
White Man's World (Live) [00:04:10]
04.
Flagship (Live) [00:05:21]
05.
Cumberland Gap (Live) [00:03:10]
06.
Something More Than Free (Live) [00:04:05]
07.
The Life You Chose (Live) [00:03:45]
08.
Elephant (Live) [00:04:44]
09.
Flying over Water (Live) [00:04:36]
10.
Last of My Kind (Live) [00:07:01]
11.
Cover Me Up (Live) [00:06:29]
12.
Super 8 (Live) [00:04:40]
13.
If We Were Vampires (Live) [00:04:26]

foobar2000 1.3.9 / Замер динамического диапазона (DR) 1.1.1
Дата отчёта: 2018-10-25 22:24:39

--------------------------------------------------------------------------------
Анализ: Jason Isbell and the 400 Unit / Live from the Ryman
--------------------------------------------------------------------------------

DR Пики RMS Продолжительность трека
--------------------------------------------------------------------------------
DR7 -0.86 дБ -10.01 дБ 3:05 01-Hope the High Road (Live)
DR8 -0.87 дБ -10.29 дБ 3:12 02-24 Frames (Live)
DR8 -0.84 дБ -11.35 дБ 4:11 03-White Man's World (Live)
DR13 -0.86 дБ -17.02 дБ 5:21 04-Flagship (Live)
DR8 -0.84 дБ -9.41 дБ 3:10 05-Cumberland Gap (Live)
DR9 -0.85 дБ -12.10 дБ 4:05 06-Something More Than Free (Live)
DR9 -0.81 дБ -10.70 дБ 3:46 07-The Life You Chose (Live)
DR10 -0.86 дБ -15.46 дБ 4:44 08-Elephant (Live)
DR8 -0.84 дБ -10.96 дБ 4:36 09-Flying over Water (Live)
DR10 -0.86 дБ -13.91 дБ 7:02 10-Last of My Kind (Live)
DR9 -0.86 дБ -13.17 дБ 6:29 11-Cover Me Up (Live)
DR8 -0.86 дБ -10.48 дБ 4:41 12-Super 8 (Live)
DR10 -0.86 дБ -13.43 дБ 4:27 13-If We Were Vampires (Live)
--------------------------------------------------------------------------------

Количество треков: 13
Реальные значения DR: DR9

Частота: 44100 Гц
Каналов: 2
Разрядность: 16
Битрейт: 778 кбит/с
Кодек: FLAC
================================================================================
-----------------------

DON'T MODIFY THIS FILE

-----------------------

PERFORMER: auCDtect Task Manager, ver. 1.6.0 RC1 build 1.6.0.1
Copyright (c) 2008-2010 y-soft. All rights reserved
http://y-soft.org

ANALYZER: auCDtect: CD records authenticity detector, version 0.8.2
Copyright (c) 2004 Oleg Berngardt. All rights reserved.
Copyright (c) 2004 Alexander Djourik. All rights reserved.


FILE: 13. If We Were Vampires (Live).flac
Size: 26028490 Hash: 4D90E7F2C8301B05F871DA3CC106B6CD Accuracy: -m0
Conclusion: CDDA 100%
Signature: 6594C6D060EB39B3CAAD314D76991C0992DFAE3C
FILE: 12. Super 8 (Live).flac
Size: 34738949 Hash: 0595A6295BD91603961C45DDEF14563F Accuracy: -m0
Conclusion: CDDA 100%
Signature: B948BFEDC9B56EF261706D8C0290CE5EE3F6478B
FILE: 11. Cover Me Up (Live).flac
Size: 38282277 Hash: F6F918227F5A9D9A560C26F19EE856B7 Accuracy: -m0
Conclusion: CDDA 100%
Signature: 9B78BA5B98D1A21C31664802529A12764EEEFD00
FILE: 10. Last Of My Kind (Live).flac
Size: 43856357 Hash: B289396ECA045AA8569F6AE14628D741 Accuracy: -m0
Conclusion: CDDA 100%
Signature: 2367A9AB5246A8259CD7385868B183EE773D5528
FILE: 09. Flying Over Water (Live).flac
Size: 30096050 Hash: 53F4CDD93AB7E59689C005E5B47BC6DC Accuracy: -m0
Conclusion: CDDA 100%
Signature: 6EDD00D453FACB6D511BE662677B53CAEDF959DE
FILE: 08. Elephant (Live).flac
Size: 26887116 Hash: 42EA64200726AFFA32240A3186F4346F Accuracy: -m0
Conclusion: CDDA 100%
Signature: 31114C9B2558FCD6E8FF796C22ED3C917B739406
FILE: 07. The Life You Chose (Live).flac
Size: 27622074 Hash: 5C8DD97DF7C618DEBD8F271470134567 Accuracy: -m0
Conclusion: CDDA 100%
Signature: 9FA62DFBC601BD465DA1991F132FB5AB5C44908F
FILE: 06. Something More Than Free (Live).flac
Size: 26594596 Hash: E858077B2A998FFE0DB416907621FE6F Accuracy: -m0
Conclusion: CDDA 100%
Signature: 87DF22F683587EE076FFFBF8DBC2F2C42A82D6F6
FILE: 05. Cumberland Gap (Live).flac
Size: 24355274 Hash: 2E245138B12BA2489D8E5C9820C58181 Accuracy: -m0
Conclusion: CDDA 100%
Signature: CCD857879E5A95BECD59340F28E3D5B86C771287
FILE: 04. Flagship (Live).flac
Size: 29128356 Hash: EDBDD6953642FDBA6931D18A102A4C8B Accuracy: -m0
Conclusion: CDDA 100%
Signature: 32F2F71053141C7E86CD2A8DB3AADEB52D82142D
FILE: 03. White Man's World (Live).flac
Size: 27264956 Hash: 8AAA89E0B5177596478FD13213BA8C4D Accuracy: -m0
Conclusion: CDDA 100%
Signature: A7E3D54901C0B4E80F348EA497CDD18E0AE4D6F4
FILE: 02. 24 Frames (Live).flac
Size: 21653218 Hash: 1CA078715EC0F62E8BDEA7EAEFF1550C Accuracy: -m0
Conclusion: CDDA 99%
Signature: 14714F7F1CFF200C6DB36E6ED94BD6FA4BC51F76
FILE: 01. Hope The High Road (Live).flac
Size: 21135847 Hash: 34CADA6BDA46A48EDBBD04A81944364F Accuracy: -m0
Conclusion: CDDA 99%
Signature: F0175245BCC4FDAD944E79E352F9476FED3595EA
Вверх