• Для скачивания альбомов c Облако Mail.Ru и Яндекс.Диск на нашем сайте необходимо зарегистрироваться.
  • Заказать необходимый альбом Вы можете в нашем специальном разделе "Стол заказов ".
Jaakko Eino Kalevi - Out of Touch (2018) [WEB / FLAC / lossless]

Jaakko Eino Kalevi - Out of Touch (2018) [WEB / FLAC / lossless]

нет прав для скачивания с cloud.mail.ru

Исполнитель: Jaakko Eino Kalevi
Альбом: Out of Touch
Носитель: WEB альбом
Дата выпуска: 2018
Жанр: Alternative
Формат: FLAC (tracks)
Битрейт: 727-905 kbps
Продолжительность: 00:40:04
Пароль на архив: grandorchestra

Треклист:
01. China Eddie [00:03:58]
02.
Emotions in Motion [00:04:16]
03.
Outside [00:04:34]
04.
This World [00:04:05]
05.
Ballad of a Cloud [00:03:17]
06.
Night Chef [00:03:02]
07.
Conceptual Mediterranean (Part 1) [00:04:10]
08.
People in the Centre of the City [00:04:15]
09.
Fortune Cookie [00:04:24]
10.
Lullaby [00:03:58]

foobar2000 1.3.9 / Замер динамического диапазона (DR) 1.1.1
Дата отчёта: 2018-10-16 13:03:22

--------------------------------------------------------------------------------
Анализ: Jaakko Eino Kalevi / Out of Touch
--------------------------------------------------------------------------------

DR Пики RMS Продолжительность трека
--------------------------------------------------------------------------------
DR7 -0.10 дБ -8.32 дБ 3:59 01-China Eddie
DR7 -0.10 дБ -8.94 дБ 4:17 02-Emotions in Motion
DR8 -0.10 дБ -10.17 дБ 4:35 03-Outside
DR7 -0.10 дБ -8.01 дБ 4:05 04-This World
DR8 -0.10 дБ -8.92 дБ 3:18 05-Ballad of a Cloud
DR7 -0.10 дБ -9.00 дБ 3:02 06-Night Chef
DR8 -0.10 дБ -9.17 дБ 4:11 07-Conceptual Mediterranean (Part 1)
DR7 -0.10 дБ -8.10 дБ 4:16 08-People in the Centre of the City
DR7 -0.10 дБ -8.43 дБ 4:25 09-Fortune Cookie
DR9 -0.10 дБ -11.13 дБ 3:58 10-Lullaby
--------------------------------------------------------------------------------

Количество треков: 10
Реальные значения DR: DR7

Частота: 44100 Гц
Каналов: 2
Разрядность: 16
Битрейт: 778 кбит/с
Кодек: FLAC
================================================================================
-----------------------

DON'T MODIFY THIS FILE

-----------------------

PERFORMER: auCDtect Task Manager, ver. 1.6.0 RC1 build 1.6.0.1
Copyright (c) 2008-2010 y-soft. All rights reserved
http://y-soft.org

ANALYZER: auCDtect: CD records authenticity detector, version 0.8.2
Copyright (c) 2004 Oleg Berngardt. All rights reserved.
Copyright (c) 2004 Alexander Djourik. All rights reserved.


FILE: 10. Lullaby.flac
Size: 23546432 Hash: 511D0DCF234EABA87C453ACE219494A6 Accuracy: -m0
Conclusion: CDDA 100%
Signature: 6EE560830519313E8DDF3DEFFEB2008646C3DE89
FILE: 09. Fortune Cookie.flac
Size: 29027343 Hash: 0D3A287E4960820FB54FDD9B0F1332B0 Accuracy: -m0
Conclusion: CDDA 100%
Signature: 152136A2D90C6461641EE51717D4AA69601A36B2
FILE: 08. People in the Centre of the City.flac
Size: 28950439 Hash: 56E138B115758E801DB0F23468A1C071 Accuracy: -m0
Conclusion: CDDA 100%
Signature: 40F32DCC87AFF70FC7A5BF687F7956B524716539
FILE: 07. Conceptual Mediterranean (Part 1).flac
Size: 27505289 Hash: FC432A50C0288E41B82B4CC8969DFB9D Accuracy: -m0
Conclusion: CDDA 100%
Signature: 20BE1B9ECFD982959AF8B307C4ABA6EA83534314
FILE: 06. Night Chef.flac
Size: 20327105 Hash: C319A0326A1C2A6358E82AB9BB2A0DCE Accuracy: -m0
Conclusion: CDDA 86%
Signature: CFC3208F09347A763E774588BB6037F1F498A9A4
FILE: 05. Ballad of a Cloud.flac
Size: 21732018 Hash: 8B619841B40AF018AC1EC1188C747CE6 Accuracy: -m0
Conclusion: CDDA 100%
Signature: FACE5433947C955FC76487B0DE289D52F297AD9C
FILE: 04. This World.flac
Size: 28144654 Hash: 844EC9FFFCDAFF025E06F621B5BD5BAA Accuracy: -m0
Conclusion: CDDA 100%
Signature: 97D62AE59C5625D4B2BB086099F5E99F6383A997
FILE: 03. Outside.flac
Size: 25365615 Hash: 14B9492A05EF3891B42F7E8BDFB9B9C2 Accuracy: -m0
Conclusion: CDDA 100%
Signature: 6496DD64AB0D82ED4B131C59B3FD21E62D5A5D4D
FILE: 02. Emotions in Motion.flac
Size: 28660891 Hash: 9F9871E7E7B5536971A2A14B51E0CCF7 Accuracy: -m0
Conclusion: CDDA 100%
Signature: 014DD849DD099AF1DA6D69C597BB06F8F4E10B03
FILE: 01. China Eddie.flac
Size: 25718314 Hash: 9B03002B283406461C1EAD7A04472E0E Accuracy: -m0
Conclusion: CDDA 100%
Signature: 82AD46311E77E9A34C32B3341CE060F9CEBF01CB
Вверх