• Для скачивания альбомов c Облако Mail.Ru и Яндекс.Диск на нашем сайте необходимо зарегистрироваться.
  • Заказать необходимый альбом Вы можете в нашем специальном разделе "Стол заказов ".
Giovanni Mazzocchin - Haydn: Late Piano Sonatas, Nos. 59-62 (2018) [WEB / FLAC / lossless]

Giovanni Mazzocchin - Haydn: Late Piano Sonatas, Nos. 59-62 (2018) [WEB / FLAC / lossless]

нет прав для скачивания с cloud.mail.ru

Исполнитель: Giovanni Mazzocchin
Альбом: Haydn: Late Piano Sonatas, Nos. 59-62
Носитель: WEB альбом
Дата выпуска: 2018
Жанр: Classical
Формат: FLAC (tracks)
Битрейт: 341-479 kbps
Продолжительность: 01:10:51
Пароль на архив: grandorchestra

Треклист:
01. Piano Sonata No. 59 in E-Flat Major, Op. 69, Hob. XVI:49: I. Allegro [00:11:52]
02.
Piano Sonata No. 59 in E-Flat Major, Op. 69, Hob. XVI:49: II. Adagio e cantabile [00:08:25]
03.
Piano Sonata No. 59 in E-Flat Major, Op. 69, Hob. XVI:49: III. Finale. Tempo di minuetto [00:04:42]
01.
Piano Sonata No. 60 in C Major, Op. 79, Hob. XVI:50: I. Allegro [00:11:43]
02.
Piano Sonata No. 60 in C Major, Op. 79, Hob. XVI:50: II. Adagio [00:05:24]
03.
Piano Sonata No. 60 in C Major, Op. 79, Hob. XVI:50: III. Allegro molto [00:02:21]
01.
Piano Sonata No. 61 in D Major, Op. 93, Hob. XVI:51: I. Andante [00:04:01]
02.
Piano Sonata No. 61 in D Major, Op. 93, Hob. XVI:51: II. Finale. Presto [00:01:49]
01.
Piano Sonata No. 62 in E-Flat Major, Op. 92, Hob. XVI:52: I. Allegro [00:08:07]
02.
Piano Sonata No. 62 in E-Flat Major, Op. 92, Hob. XVI:52: II. Adagio [00:06:55]
03.
Piano Sonata No. 62 in E-Flat Major, Op. 92, Hob. XVI:52: III. Finale. Presto [00:05:28]

foobar2000 1.3.9 / Замер динамического диапазона (DR) 1.1.1
Дата отчёта: 2018-10-08 12:56:16

--------------------------------------------------------------------------------
Анализ: Giovanni Mazzocchin / Haydn: Late Piano Sonatas, Nos. 59-62
--------------------------------------------------------------------------------

DR Пики RMS Продолжительность трека
--------------------------------------------------------------------------------
DR16 -2.46 дБ -22.39 дБ 11:52 01-Piano Sonata No. 59 in E-Flat Major, Op. 69, Hob. XVI:49: I. Allegro
DR14 -4.40 дБ -24.83 дБ 8:25 02-Piano Sonata No. 59 in E-Flat Major, Op. 69, Hob. XVI:49: II. Adagio e cantabile
DR13 -2.91 дБ -23.10 дБ 4:42 03-Piano Sonata No. 59 in E-Flat Major, Op. 69, Hob. XVI:49: III. Finale. Tempo di minuetto
DR16 0.00 дБ -19.98 дБ 11:43 01-Piano Sonata No. 60 in C Major, Op. 79, Hob. XVI:50: I. Allegro
DR14 -7.15 дБ -25.14 дБ 5:25 02-Piano Sonata No. 60 in C Major, Op. 79, Hob. XVI:50: II. Adagio
DR13 -0.63 дБ -19.03 дБ 2:22 03-Piano Sonata No. 60 in C Major, Op. 79, Hob. XVI:50: III. Allegro molto
DR13 -3.95 дБ -21.88 дБ 4:01 01-Piano Sonata No. 61 in D Major, Op. 93, Hob. XVI:51: I. Andante
DR14 -1.15 дБ -18.88 дБ 1:50 02-Piano Sonata No. 61 in D Major, Op. 93, Hob. XVI:51: II. Finale. Presto
DR16 0.00 дБ -20.11 дБ 8:07 01-Piano Sonata No. 62 in E-Flat Major, Op. 92, Hob. XVI:52: I. Allegro
DR16 -1.70 дБ -25.05 дБ 6:56 02-Piano Sonata No. 62 in E-Flat Major, Op. 92, Hob. XVI:52: II. Adagio
DR14 0.00 дБ -18.89 дБ 5:29 03-Piano Sonata No. 62 in E-Flat Major, Op. 92, Hob. XVI:52: III. Finale. Presto
--------------------------------------------------------------------------------

Количество треков: 11
Реальные значения DR: DR14

Частота: 44100 Гц
Каналов: 2
Разрядность: 16
Битрейт: 480 кбит/с
Кодек: FLAC
================================================================================
-----------------------

DON'T MODIFY THIS FILE

-----------------------

PERFORMER: auCDtect Task Manager, ver. 1.6.0 RC1 build 1.6.0.1
Copyright (c) 2008-2010 y-soft. All rights reserved
http://y-soft.org

ANALYZER: auCDtect: CD records authenticity detector, version 0.8.2
Copyright (c) 2004 Oleg Berngardt. All rights reserved.
Copyright (c) 2004 Alexander Djourik. All rights reserved.


FILE: 4-03. Piano Sonata No. 62 in E-Flat Major, Op. 92, Hob. XVI52 III. Finale. Presto.flac
Size: 19959955 Hash: 7231FC9ABA648F522A4A893B73FF42C7 Accuracy: -m0
Conclusion: CDDA 87%
Signature: 7D7B08719ACA34074E218C40C72AE9A1D771D785
FILE: 4-02. Piano Sonata No. 62 in E-Flat Major, Op. 92, Hob. XVI52 II. Adagio.flac
Size: 18000288 Hash: 8D8AF2436B79A966DD6E60FD86E59318 Accuracy: -m0
Conclusion: CDDA 99%
Signature: 6CBB0114599807DB8F003BF000D955997E16AFD0
FILE: 4-01. Piano Sonata No. 62 in E-Flat Major, Op. 92, Hob. XVI52 I. Allegro.flac
Size: 27513562 Hash: DC6D0242896EE845D9933B3837D42749 Accuracy: -m0
Conclusion: CDDA 92%
Signature: FC6718888FCBE6B305118C0B4FD58C321F446053
FILE: 3-02. Piano Sonata No. 61 in D Major, Op. 93, Hob. XVI51 II. Finale. Presto.flac
Size: 6652515 Hash: 7135312535DBCC7626E708A230268C48 Accuracy: -m0
Conclusion: CDDA 100%
Signature: 3FE46A8B05D6D50D03DBBA2B1688719CD54B3680
FILE: 3-01. Piano Sonata No. 61 in D Major, Op. 93, Hob. XVI51 I. Andante.flac
Size: 12423633 Hash: 42E2F049B591C84D60AF7B054DD00C70 Accuracy: -m0
Conclusion: CDDA 100%
Signature: 43D8E04331F28226C6FC7E9F4AADD3935D7F521A
FILE: 2-03. Piano Sonata No. 60 in C Major, Op. 79, Hob. XVI50 III. Allegro molto.flac
Size: 8400610 Hash: 93C84E3A3C5C5801FDCC2A6FF68DE846 Accuracy: -m0
Conclusion: CDDA 100%
Signature: 91D6FFD62CF48723A41922B42D1B5D43C7A067BC
FILE: 2-02. Piano Sonata No. 60 in C Major, Op. 79, Hob. XVI50 II. Adagio.flac
Size: 15033749 Hash: 603E26BE2FA455EF69825106292DBD8E Accuracy: -m0
Conclusion: CDDA 100%
Signature: BEB3F223B68B66318922FF0B21F5EBF077E00584
FILE: 2-01. Piano Sonata No. 60 in C Major, Op. 79, Hob. XVI50 I. Allegro.flac
Size: 40411178 Hash: CF7F4580ECD8AE5606A9380977A83F31 Accuracy: -m0
Conclusion: CDDA 92%
Signature: B2CF5CC86C3EB0226F06B4BFB25EA2CE299D6E62
FILE: 1-03. Piano Sonata No. 59 in E-Flat Major, Op. 69, Hob. XVI49 III. Finale. Tempo di minuetto.flac
Size: 14280133 Hash: 323339FD6C3CA3BC1C8E5932DEE8DAA5 Accuracy: -m0
Conclusion: CDDA 85%
Signature: 4263F32D7A5CAEFCFCDFBB4439DB271840F570B8
FILE: 1-02. Piano Sonata No. 59 in E-Flat Major, Op. 69, Hob. XVI49 II. Adagio e cantabile.flac
Size: 23501217 Hash: C4877C5134696840F2C8950B82164A38 Accuracy: -m0
Conclusion: CDDA 100%
Signature: 0CBCE68FCE34B40EA5E3CC7009DCC8F0873B426B
FILE: 1-01. Piano Sonata No. 59 in E-Flat Major, Op. 69, Hob. XVI49 I. Allegro.flac
Size: 37125749 Hash: 975D5FAFD31ACA0AFC5731D667771AFC Accuracy: -m0
Conclusion: CDDA 85%
Signature: 6F9A926E7F09C08CF91C82C602EEFB84C5D3866C
Вверх