• Для скачивания альбомов c Облако Mail.Ru и Яндекс.Диск на нашем сайте необходимо зарегистрироваться.
  • Заказать необходимый альбом Вы можете в нашем специальном разделе "Стол заказов ".
Gente De Zona - En Letra de Otro (2018) [WEB / FLAC / lossless]

Gente De Zona - En Letra de Otro (2018) [WEB / FLAC / lossless]

нет прав для скачивания с cloud.mail.ru

Исполнитель: Gente De Zona
Альбом: En Letra de Otro
Носитель: WEB альбом
Дата выпуска: 2018
Жанр: Pop
Формат: FLAC (tracks)
Битрейт: 949-1043 kbps
Продолжительность: 00:35:33
Скачать: dfiles | douploads
Пароль на архив: grandorchestra

Треклист:
01. Si Tú No Estás [00:03:40]
02.
Cuando Calienta el Sol [00:04:05]
03.
Manantial de Corazón [00:03:25]
04.
Después de Ti [00:03:20]
05.
El Rey [00:03:36]
06.
La Bamba [00:02:59]
07.
Las 40 [00:04:14]
08.
Noche de Luna (Cuando Yo La Conocí) [00:02:30]
09.
Idilio [00:04:06]
10.
A Bailar el Toca Toca [00:03:34]

foobar2000 1.3.9 / Замер динамического диапазона (DR) 1.1.1
Дата отчёта: 2018-10-31 21:18:19

--------------------------------------------------------------------------------
Анализ: Gente De Zona / En Letra de Otro
--------------------------------------------------------------------------------

DR Пики RMS Продолжительность трека
--------------------------------------------------------------------------------
DR8 0.00 дБ -9.37 дБ 3:40 01-Si Tú No Estás
DR6 0.00 дБ -8.20 дБ 4:05 02-Cuando Calienta el Sol
DR7 -0.07 дБ -9.25 дБ 3:26 03-Manantial de Corazón
DR7 0.00 дБ -8.33 дБ 3:20 04-Después de Ti
DR7 0.00 дБ -8.46 дБ 3:37 05-El Rey
DR7 0.00 дБ -8.47 дБ 3:00 06-La Bamba
DR8 0.00 дБ -9.08 дБ 4:15 07-Las 40
DR6 0.00 дБ -7.53 дБ 2:31 08-Noche de Luna (Cuando Yo La Conocí)
DR7 0.00 дБ -8.71 дБ 4:06 09-Idilio
DR6 0.00 дБ -7.53 дБ 3:35 10-A Bailar el Toca Toca
--------------------------------------------------------------------------------

Количество треков: 10
Реальные значения DR: DR7

Частота: 44100 Гц
Каналов: 2
Разрядность: 16
Битрейт: 1044 кбит/с
Кодек: FLAC
================================================================================
-----------------------

DON'T MODIFY THIS FILE

-----------------------

PERFORMER: auCDtect Task Manager, ver. 1.6.0 RC1 build 1.6.0.1
Copyright (c) 2008-2010 y-soft. All rights reserved
http://y-soft.org

ANALYZER: auCDtect: CD records authenticity detector, version 0.8.2
Copyright (c) 2004 Oleg Berngardt. All rights reserved.
Copyright (c) 2004 Alexander Djourik. All rights reserved.


FILE: 10. A Bailar El Toca Toca.flac
Size: 28194457 Hash: 0F066FBD03EC752CD7C887A8B49BD356 Accuracy: -m0
Conclusion: CDDA 100%
Signature: DFEEEF9E543434E72641C75FF6B66D6EE5508B50
FILE: 09. Idilio.flac
Size: 30782092 Hash: 04676A84ECF6D28AE0DFC889F1A9B60C Accuracy: -m0
Conclusion: MPEG 95%
Signature: 5DD85E5536214385728BF957B99E9FD7F1149BD6
FILE: 08. Noche De Luna (Cuando Yo La Conocí).flac
Size: 19711069 Hash: EDB66A3E37BB93E68CF04151BF07CE04 Accuracy: -m0
Conclusion: CDDA 100%
Signature: AFB7FD0EA61D289FDCA2472012FA4D019C4649A8
FILE: 07. Las 40.flac
Size: 30228375 Hash: 5C50EF3419E85119126EC7953123A66A Accuracy: -m0
Conclusion: CDDA 100%
Signature: F535C9EDFED7D5132EC17F736BE6D37F41D07264
FILE: 06. La Bamba.flac
Size: 23429287 Hash: 44AEEEB9A8C6AF2AE672E61E9D9DCCE0 Accuracy: -m0
Conclusion: CDDA 100%
Signature: AD03EE79236C148CAF82C8D6410526EB1521D7D3
FILE: 05. El Rey.flac
Size: 27227709 Hash: 3CD5425C341B8D4CEA43F05402C3FDE0 Accuracy: -m0
Conclusion: CDDA 100%
Signature: C72696362EC74B3BBCF3F6AB337ADD1C675786B4
FILE: 04. Después De Ti.flac
Size: 25218493 Hash: C84E1398DDE7B3618745890780E7D0FC Accuracy: -m0
Conclusion: CDDA 100%
Signature: 7B17271E9E44D620F1CC2DDE585B254B77EFF48B
FILE: 03. Manantial De Corazón.flac
Size: 25367648 Hash: 3C303E6300E9A0A2A14D03836D8A6A29 Accuracy: -m0
Conclusion: CDDA 100%
Signature: 9E5EE6912F246491B488AC55F3B41182B1D39617
FILE: 02. Cuando Calienta El Sol.flac
Size: 31065590 Hash: 6EB19F855D5FF9C4764D365C7E55051A Accuracy: -m0
Conclusion: CDDA 100%
Signature: 97C2CF4B59865729C4EA9D7729D4A592FCCDBA6A
FILE: 01. Si Tú No Estás.flac
Size: 28015458 Hash: 700E55291BD2DCADB12721F6F149FBCC Accuracy: -m0
Conclusion: CDDA 100%
Signature: 7058A0013545D398E15B4BDD3A86FCA8266F986C
Вверх