• Для скачивания альбомов c Облако Mail.Ru и Яндекс.Диск на нашем сайте необходимо зарегистрироваться.
  • Заказать необходимый альбом Вы можете в нашем специальном разделе "Стол заказов ".
Gavin James - Only Ticket Home (2018) [WEB / FLAC / lossless]

Gavin James - Only Ticket Home (2018) [WEB / FLAC / lossless]

нет прав для скачивания с cloud.mail.ru
  • Автор rdf
  • Дата создания
  • Рекомендуемый

Исполнитель: Gavin James
Альбом: Only Ticket Home
Носитель: WEB альбом
Дата выпуска: 2018
Жанр: Pop
Формат: FLAC (tracks)
Битрейт: 786-1046 kbps
Продолжительность: 00:51:15
Скачать: filehost | turbobit | dfiles | douploads
Пароль на архив: grandorchestra

Треклист:
01. Start Again [00:03:40]
02.
Glow [00:03:50]
03.
Always [00:04:07]
04.
Faces [00:03:22]
05.
Hearts On Fire [00:03:17]
06.
Cigarette Break [00:04:05]
07.
The Middle [00:03:47]
08.
Strangers [00:03:02]
09.
Easy [00:04:05]
10.
Tired [00:03:47]
11.
Only Ticket Home [00:03:14]
12.
Put You Back Together [00:03:37]
13.
Hard To Do [00:04:05]
14.
Last Year (Live) [00:03:11]

foobar2000 1.3.9 / Замер динамического диапазона (DR) 1.1.1
Дата отчёта: 2018-10-29 22:24:49

--------------------------------------------------------------------------------
Анализ: Gavin James / Only Ticket Home
--------------------------------------------------------------------------------

DR Пики RMS Продолжительность трека
--------------------------------------------------------------------------------
DR5 -0.10 дБ -6.93 дБ 3:40 01-Start Again
DR5 0.00 дБ -7.48 дБ 3:51 02-Glow
DR5 -0.14 дБ -7.87 дБ 4:08 03-Always
DR6 -0.12 дБ -8.88 дБ 3:22 04-Faces
DR5 -0.09 дБ -6.95 дБ 3:17 05-Hearts On Fire
DR6 -0.12 дБ -8.51 дБ 4:06 06-Cigarette Break
DR5 -0.10 дБ -6.72 дБ 3:48 07-The Middle
DR7 -0.12 дБ -9.54 дБ 3:02 08-Strangers
DR6 -0.12 дБ -10.31 дБ 4:05 09-Easy
DR6 -0.12 дБ -8.52 дБ 3:47 10-Tired
DR6 -0.10 дБ -9.25 дБ 3:14 11-Only Ticket Home
DR6 -0.12 дБ -8.93 дБ 3:37 12-Put You Back Together
DR7 -0.09 дБ -9.74 дБ 4:06 13-Hard To Do
DR7 -0.12 дБ -9.54 дБ 3:12 14-Last Year (Live)
--------------------------------------------------------------------------------

Количество треков: 14
Реальные значения DR: DR6

Частота: 44100 Гц
Каналов: 2
Разрядность: 16
Битрейт: 787 кбит/с
Кодек: FLAC
================================================================================
-----------------------

DON'T MODIFY THIS FILE

-----------------------

PERFORMER: auCDtect Task Manager, ver. 1.6.0 RC1 build 1.6.0.1
Copyright (c) 2008-2010 y-soft. All rights reserved
http://y-soft.org

ANALYZER: auCDtect: CD records authenticity detector, version 0.8.2
Copyright (c) 2004 Oleg Berngardt. All rights reserved.
Copyright (c) 2004 Alexander Djourik. All rights reserved.


FILE: 14. Last Year (Live).flac
Size: 18850778 Hash: 9A4D2961FE727F026D9669E3B6CD976D Accuracy: -m0
Conclusion: CDDA 100%
Signature: 098AADD3D8D4F86618D04B49E06CB2A0C19EC81A
FILE: 13. Hard To Do.flac
Size: 25425388 Hash: 60B6694224A76390526D483E7B8A6D06 Accuracy: -m0
Conclusion: MPEG 95%
Signature: 222B50AA5EAE1CC11816C2F0D0A9D56A12A44894
FILE: 12. Put You Back Together.flac
Size: 21815214 Hash: BF1EF204EEFD0402C9A598CBD864B6B7 Accuracy: -m0
Conclusion: CDDA 100%
Signature: C884EB9FA9AFF4C7D6F411F9237160942FD4AC90
FILE: 11. Only Ticket Home.flac
Size: 20774463 Hash: 43D2F97A6C8C64D39150F29EFEC7833C Accuracy: -m0
Conclusion: CDDA 100%
Signature: 69E1008790C79CB2727F4D67940ADAD04C211AB6
FILE: 10. Tired.flac
Size: 26094117 Hash: F23BBD30734DA2383E8316F063FBCD30 Accuracy: -m0
Conclusion: CDDA 99%
Signature: C5324D55DAFA75B210353A0826098897C011C4D5
FILE: 09. Easy.flac
Size: 24940833 Hash: 2D942FE2DFBA49A38779FC90EA8ACD19 Accuracy: -m0
Conclusion: CDDA 100%
Signature: 8C634880F2CD7452A02AB3E29B38C1F789AF1896
FILE: 08. Strangers.flac
Size: 19052382 Hash: 66F93A325FBD59A2380CB621601B5EAA Accuracy: -m0
Conclusion: CDDA 100%
Signature: 61A6F1E76BBC057BC12363E9F8E7F77721046C21
FILE: 07. The Middle.flac
Size: 26016206 Hash: E081207840C20D748E91DF2F1E4BEA80 Accuracy: -m0
Conclusion: CDDA 100%
Signature: 96C51D4847401D4DB047C87FD270FA9F1EBAAB62
FILE: 06. Cigarette Break.flac
Size: 26260597 Hash: 178A3A9CF2754EEE97942E35E19DA2B3 Accuracy: -m0
Conclusion: CDDA 100%
Signature: C31A2D3BF56DB32C47785904C5DA6E33978D6031
FILE: 05. Hearts On Fire.flac
Size: 25914589 Hash: 22102CFBF2BCE276FB8FC23DFEE7D2A7 Accuracy: -m0
Conclusion: CDDA 100%
Signature: E8E48842BC251B540641C240B998CB21B5AAEF55
FILE: 04. Faces.flac
Size: 23527681 Hash: 5C851DB5EDED60716C69C4B0B5451E8B Accuracy: -m0
Conclusion: CDDA 99%
Signature: 4C94B83E8C96A67506AA9418D4BE031D665E7772
FILE: 03. Always.flac
Size: 28041299 Hash: C3594B070B9F7A38649D2584697DF8CC Accuracy: -m0
Conclusion: MPEG 95%
Signature: 0E0C5DA0A2E8A33F53B2950C904AD1586A163FA0
FILE: 02. Glow.flac
Size: 27028765 Hash: 39CC1C2174F755920230223C5FFABD85 Accuracy: -m0
Conclusion: MPEG 95%
Signature: 17256C42E333BAF159FAF908692D1D6F6301363C
FILE: 01. Start Again.flac
Size: 25590370 Hash: 1D5652ACF7BC4AD55E342DC72718DFD6 Accuracy: -m0
Conclusion: CDDA 100%
Signature: B090291151C67B38FC4F45479315EEA037025362
Вверх