• Для скачивания альбомов c Облако Mail.Ru и Яндекс.Диск на нашем сайте необходимо зарегистрироваться.
  • Заказать необходимый альбом Вы можете в нашем специальном разделе "Стол заказов ".
Fridrik Karlsson - Good Morning (2001) [WEB / FLAC / lossless]

Fridrik Karlsson - Good Morning (2001) [WEB / FLAC / lossless]

нет прав для скачивания с cloud.mail.ru
  • Автор rdf
  • Дата создания
  • Рекомендуемый

Исполнитель: Fridrik Karlsson
Альбом: Good Morning
Носитель: WEB альбом
Дата выпуска: 2001
Жанр: New Age
Формат: FLAC (tracks)
Битрейт: 762-833 kbps
Продолжительность: 00:56:35
Пароль на архив: grandorchestra

Треклист:
01. Morning Bliss [00:09:40]
02.
Magical Sun [00:09:12]
03.
Sunrise [00:09:17]
04.
Cruising [00:09:29]
05.
Joyful Afternoon [00:09:40]
06.
Morning Colours [00:09:14]

foobar2000 1.3.9 / Замер динамического диапазона (DR) 1.1.1
Дата отчёта: 2018-09-27 23:27:27

--------------------------------------------------------------------------------
Анализ: Fridrik Karlsson / Good Morning
--------------------------------------------------------------------------------

DR Пики RMS Продолжительность трека
--------------------------------------------------------------------------------
DR14 -0.14 дБ -16.69 дБ 9:41 01-Morning Bliss
DR15 -0.48 дБ -16.37 дБ 9:12 02-Magical Sun
DR14 0.00 дБ -15.46 дБ 9:18 03-Sunrise
DR14 -0.03 дБ -15.65 дБ 9:30 04-Cruising
DR13 -0.13 дБ -15.39 дБ 9:40 05-Joyful Afternoon
DR13 -0.26 дБ -15.06 дБ 9:15 06-Morning Colours
--------------------------------------------------------------------------------

Количество треков: 6
Реальные значения DR: DR14

Частота: 44100 Гц
Каналов: 2
Разрядность: 16
Битрейт: 763 кбит/с
Кодек: FLAC
================================================================================
-----------------------

DON'T MODIFY THIS FILE

-----------------------

PERFORMER: auCDtect Task Manager, ver. 1.6.0 RC1 build 1.6.0.1
Copyright (c) 2008-2010 y-soft. All rights reserved
http://y-soft.org

ANALYZER: auCDtect: CD records authenticity detector, version 0.8.2
Copyright (c) 2004 Oleg Berngardt. All rights reserved.
Copyright (c) 2004 Alexander Djourik. All rights reserved.


FILE: 06. Morning Colours.flac
Size: 52995990 Hash: 4B3168F492E8AFA6A58DE0CDDCC1874D Accuracy: -m0
Conclusion: CDDA 100%
Signature: 43B44DB6DF5D706BC5430F9317E270C62D9FF568
FILE: 05. Joyful Afternoon.flac
Size: 59021021 Hash: F3612177F1061501D312A376C6F6D12A Accuracy: -m0
Conclusion: CDDA 100%
Signature: E58FC84868B13AFAED6D583C3DAE7149D3E0669E
FILE: 04. Cruising.flac
Size: 59435992 Hash: 116D6BD96416F8DD4CC5BDEA8C8569DD Accuracy: -m0
Conclusion: CDDA 99%
Signature: EF6622A1B2925067661595B0C99A511222941DFC
FILE: 03. Sunrise.flac
Size: 56590577 Hash: 58F8B091AFD1B1BAD8B6E5C67AE27EA4 Accuracy: -m0
Conclusion: CDDA 100%
Signature: 08081B7EBA62D85A3B3FC3B4F24AB6ED7F6D1D69
FILE: 02. Magical Sun.flac
Size: 56077844 Hash: B440E27C8315EC574F3E62FCC4B22106 Accuracy: -m0
Conclusion: CDDA 99%
Signature: 9A058D8A7273F7D8F96407B01E6AC65C709F4F7D
FILE: 01. Morning Bliss.flac
Size: 60644943 Hash: 7934AAD0028D51327FCAA78CB597964E Accuracy: -m0
Conclusion: CDDA 100%
Signature: 0C206BF89401B9EF150DBFA2630D3A6F5B4D56D4

Вверх