• Для скачивания альбомов c Облако Mail.Ru и Яндекс.Диск на нашем сайте необходимо зарегистрироваться.
  • Заказать необходимый альбом Вы можете в нашем специальном разделе "Стол заказов ".
Frank Sinatra - Sings For Only The Lonely (Deluxe) (2018) [WEB / FLAC / 24bit lossless]

Frank Sinatra - Sings For Only The Lonely (Deluxe) (2018) [WEB / FLAC / 24bit lossless]

нет прав для скачивания с cloud.mail.ru
  • Автор rdf
  • Дата создания
  • Рекомендуемый

Исполнитель: Frank Sinatra
Альбом: Sings For Only The Lonely (Deluxe)
Носитель: WEB альбом
Дата выпуска: 2018
Жанр: Pop
Формат: FLAC (tracks)
Битрейт: 1386-1604 kbps
Продолжительность: 02:18:25
Скачать: filehost | turbobit | dfiles
Пароль на архив: grandorchestra

01. Only The Lonely (1958 Mono Mix) [00:04:07]
02.
Angel Eyes (1958 Mono Mix) [00:03:42]
03.
What's New (1958 Mono Mix) [00:05:08]
04.
It's A Lonesome Old Town (1958 Mono Mix) [00:04:13]
05.
Willow Weep For Me (1958 Mono Mix) [00:04:45]
06.
Good-Bye (1958 Mono Mix) [00:05:41]
07.
Blues In The Night (1958 Mono Mix) [00:04:42]
08.
Guess I'll Hang My Tears Out To Dry (1958 Mono Mix) [00:03:59]
09.
Ebb Tide (1958 Mono Mix) [00:03:13]
10.
Spring Is Here (1958 Mono Mix) [00:04:43]
11.
Gone With The Wind (1958 Mono Mix) [00:05:10]
12.
One For My Baby (1958 Mono Mix) [00:04:23]
13.
Guess I'll Hang My Tears Out To Dry (Mono/Alternate Take/May 5, 1958) [00:05:09]
14.
Angel Eyes (Mono/Alternate Session Takes/May 5, 1958) [00:17:02]
15.
Only The Lonely (2018 Stereo Mix) [00:04:08]
16.
Angel Eyes (2018 Stereo Mix) [00:03:43]
17.
What's New? (2018 Stereo Mix) [00:05:10]
18.
It's A Lonesome Old Town (2018 Stereo Mix) [00:04:15]
19.
Willow Weep For Me (2018 Stereo Mix) [00:04:47]
20.
Good-Bye (2018 Stereo Mix) [00:05:42]
21.
Blues In The Night (2018 Stereo Mix) [00:04:43]
22.
Guess I'll Hang My Tears Out To Dry (2018 Stereo Mix) [00:04:00]
23.
Ebb Tide (2018 Stereo Mix) [00:03:14]
24.
Spring Is Here (2018 Stereo Mix) [00:04:45]
25.
Gone With The Wind (2018 Stereo Mix) [00:05:12]
26.
One For My Baby (2018 Stereo Mix) [00:04:24]
27.
Lush Life (Mono/Session Takes/May 29, 1958) [00:04:03]
28.
One For My Baby (Mono/Test Track/June 24, 1958) [00:04:09]

foobar2000 1.3.9 / Замер динамического диапазона (DR) 1.1.1
Дата отчёта: 2018-10-21 18:49:22

--------------------------------------------------------------------------------
Анализ: Frank Sinatra / Sings For Only The Lonely (Deluxe)
--------------------------------------------------------------------------------

DR Пики RMS Продолжительность трека
--------------------------------------------------------------------------------
DR10 0.00 дБ -12.28 дБ 4:08 01-Only The Lonely (1958 Mono Mix)
DR11 0.00 дБ -14.48 дБ 3:42 02-Angel Eyes (1958 Mono Mix)
DR10 0.00 дБ -13.11 дБ 5:08 03-What's New (1958 Mono Mix)
DR10 0.00 дБ -13.00 дБ 4:14 04-It's A Lonesome Old Town (1958 Mono Mix)
DR10 0.00 дБ -13.55 дБ 4:45 05-Willow Weep For Me (1958 Mono Mix)
DR11 0.00 дБ -14.27 дБ 5:42 06-Good-Bye (1958 Mono Mix)
DR10 0.00 дБ -13.30 дБ 4:42 07-Blues In The Night (1958 Mono Mix)
DR10 0.00 дБ -13.65 дБ 4:00 08-Guess I'll Hang My Tears Out To Dry (1958 Mono Mix)
DR9 0.00 дБ -12.51 дБ 3:14 09-Ebb Tide (1958 Mono Mix)
DR10 0.00 дБ -12.88 дБ 4:44 10-Spring Is Here (1958 Mono Mix)
DR11 0.00 дБ -14.39 дБ 5:11 11-Gone With The Wind (1958 Mono Mix)
DR14 0.00 дБ -17.54 дБ 4:24 12-One For My Baby (1958 Mono Mix)
DR11 -0.77 дБ -15.98 дБ 5:10 13-Guess I'll Hang My Tears Out To Dry (Mono/Alternate Take/May 5, 1958)
DR14 0.00 дБ -17.15 дБ 17:03 14-Angel Eyes (Mono/Alternate Session Takes/May 5, 1958)
DR9 -1.64 дБ -15.46 дБ 4:08 15-Only The Lonely (2018 Stereo Mix)
DR11 -0.97 дБ -16.36 дБ 3:44 16-Angel Eyes (2018 Stereo Mix)
DR10 -1.38 дБ -16.02 дБ 5:10 17-What's New? (2018 Stereo Mix)
DR9 -1.34 дБ -14.58 дБ 4:15 18-It's A Lonesome Old Town (2018 Stereo Mix)
DR11 -2.10 дБ -16.98 дБ 4:47 19-Willow Weep For Me (2018 Stereo Mix)
DR10 -0.98 дБ -16.10 дБ 5:43 20-Good-Bye (2018 Stereo Mix)
DR10 -1.40 дБ -15.07 дБ 4:43 21-Blues In The Night (2018 Stereo Mix)
DR10 -0.76 дБ -14.90 дБ 4:00 22-Guess I'll Hang My Tears Out To Dry (2018 Stereo Mix)
DR10 -1.39 дБ -15.98 дБ 3:15 23-Ebb Tide (2018 Stereo Mix)
DR10 -1.62 дБ -16.14 дБ 4:45 24-Spring Is Here (2018 Stereo Mix)
DR9 -1.25 дБ -14.99 дБ 5:13 25-Gone With The Wind (2018 Stereo Mix)
DR12 -1.76 дБ -18.16 дБ 4:25 26-One For My Baby (2018 Stereo Mix)
DR13 -0.89 дБ -18.42 дБ 4:03 27-Lush Life (Mono/Session Takes/May 29, 1958)
DR14 -1.09 дБ -20.58 дБ 4:09 28-One For My Baby (Mono/Test Track/June 24, 1958)
--------------------------------------------------------------------------------

Количество треков: 28
Реальные значения DR: DR11

Частота: 48000 Гц
Каналов: 2
Разрядность: 24
Битрейт: 1387 кбит/с
Кодек: FLAC
================================================================================
Вверх