• Для скачивания альбомов c Облако Mail.Ru и Яндекс.Диск на нашем сайте необходимо зарегистрироваться.
  • Заказать необходимый альбом Вы можете в нашем специальном разделе "Стол заказов ".
Frank Piano & Pure Romance - Piano Soundscapes (2016) [WEB / FLAC / lossless]

Frank Piano & Pure Romance - Piano Soundscapes (2016) [WEB / FLAC / lossless]

нет прав для скачивания с cloud.mail.ru

Исполнитель: Frank Piano & Pure Romance
Альбом: Piano Soundscapes – Romance Healing Piano Music for Love
Носитель: WEB альбом
Дата выпуска: 2016
Жанр: Instrumental, New Age
Формат: FLAC (tracks)
Битрейт: 390-820 kbps
Продолжительность: 01:42:52
Пароль на архив: grandorchestra

Треклист:
01. Piano Soundscapes [00:03:29]
02.
Romance [00:05:05]
03.
Serendipity (FIrst Love) [00:06:37]
04.
By the Sea [00:05:13]
05.
Crashing Waves [00:06:26]
06.
Rainy Day (Nature Power) [00:04:38]
07.
Relaxing Piano Music [00:04:30]
08.
The Piano (Romantic Music) [00:04:13]
09.
A Morning in Paris [00:06:03]
10.
Wonderful Chill Out Piano Music for Love [00:06:14]
11.
P.S. I Love You [00:04:34]
12.
Solitude (Piano Song) [00:04:22]
13.
First Date (Pure Romance) [00:04:04]
14.
Reading Letters [00:05:37]
15.
One Last Kiss (Soundscapes) [00:06:01]
16.
If Only (Music for Love) [00:05:33]
17.
Sweet Memories - Instrumental Piano Music [00:03:45]
18.
Moonlight Sonata [00:03:46]
19.
Love Dreams [00:05:52]
20.
The First Picture of You - Relaxing Piano Music [00:06:41]

foobar2000 1.3.9 / Замер динамического диапазона (DR) 1.1.1
Дата отчёта: 2018-10-08 12:29:15

--------------------------------------------------------------------------------
Анализ: Frank Piano / Piano Soundscapes – Romance Healing Piano Music for Love
--------------------------------------------------------------------------------

DR Пики RMS Продолжительность трека
--------------------------------------------------------------------------------
DR12 -0.96 дБ -17.33 дБ 3:29 01-Piano Soundscapes
DR14 -0.24 дБ -17.72 дБ 5:06 02-Romance
DR12 -0.88 дБ -17.86 дБ 6:38 03-Serendipity (FIrst Love)
DR13 -0.27 дБ -16.49 дБ 5:13 04-By the Sea
DR10 -2.60 дБ -16.23 дБ 6:26 05-Crashing Waves
DR15 -2.82 дБ -21.69 дБ 4:38 06-Rainy Day (Nature Power)
DR12 -0.91 дБ -16.14 дБ 4:30 07-Relaxing Piano Music
DR11 -0.68 дБ -14.46 дБ 4:14 08-The Piano (Romantic Music)
DR16 -0.24 дБ -26.33 дБ 6:03 09-A Morning in Paris
DR18 -3.39 дБ -26.72 дБ 6:14 10-Wonderful Chill Out Piano Music for Love
DR11 -3.71 дБ -18.24 дБ 4:35 11-P.S. I Love You
DR13 -3.14 дБ -19.94 дБ 4:23 12-Solitude (Piano Song)
DR11 -1.48 дБ -17.05 дБ 4:05 13-First Date (Pure Romance)
DR15 -1.10 дБ -21.32 дБ 5:37 14-Reading Letters
DR12 -1.00 дБ -17.56 дБ 6:02 15-One Last Kiss (Soundscapes)
DR10 -3.58 дБ -15.56 дБ 5:33 16-If Only (Music for Love)
DR13 -0.53 дБ -16.66 дБ 3:46 17-Sweet Memories - Instrumental Piano Music
DR10 -1.38 дБ -14.58 дБ 3:46 18-Moonlight Sonata
DR13 -5.90 дБ -22.87 дБ 5:53 19-Love Dreams
DR10 -3.19 дБ -15.06 дБ 6:42 20-The First Picture of You - Relaxing Piano Music
--------------------------------------------------------------------------------

Количество треков: 20
Реальные значения DR: DR13

Частота: 44100 Гц
Каналов: 2
Разрядность: 16
Битрейт: 735 кбит/с
Кодек: FLAC
================================================================================
-----------------------

DON'T MODIFY THIS FILE

-----------------------

PERFORMER: auCDtect Task Manager, ver. 1.6.0 RC1 build 1.6.0.1
Copyright (c) 2008-2010 y-soft. All rights reserved
http://y-soft.org

ANALYZER: auCDtect: CD records authenticity detector, version 0.8.2
Copyright (c) 2004 Oleg Berngardt. All rights reserved.
Copyright (c) 2004 Alexander Djourik. All rights reserved.


FILE: 20. The First Picture of You - Relaxing Piano Music.flac
Size: 37106305 Hash: 2EC5420D2F40E05B69B11367535F0F49 Accuracy: -m0
Conclusion: CDDA 100%
Signature: E45B4F90119136E0F5B8D2F8DE78EE441D9B9E1B
FILE: 19. Love Dreams.flac
Size: 25806541 Hash: 44308D71F64A21D3919EA144E68C362B Accuracy: -m0
Conclusion: ???
Signature: 3C61F128DCA1F3F0F2C692EB687B49B1D7F7ABAE
FILE: 18. Moonlight Sonata.flac
Size: 13820870 Hash: 7F498F6E69222C8611CF3BE04A566404 Accuracy: -m0
Conclusion: CDDA 49%
Signature: E927A98463FB2460A759995220F946662BC7187C
FILE: 17. Sweet Memories - Instrumental Piano Music.flac
Size: 21968054 Hash: F85051B0336296B640DEF0AC81651948 Accuracy: -m0
Conclusion: CDDA 100%
Signature: 15F0C323BFEDCC6D63269D0E47AC4671FE434B33
FILE: 16. If Only (Music for Love).flac
Size: 30240612 Hash: D3EFFE3D790B91041B6D65ED0171C463 Accuracy: -m0
Conclusion: CDDA 99%
Signature: 6B59DD725FD56C29C1B390BB70A73201D4A06036
FILE: 15. One Last Kiss (Soundscapes).flac
Size: 28106587 Hash: 796A85DBF9C3212DB270E4475FE90701 Accuracy: -m0
Conclusion: CDDA 100%
Signature: 1DDB9C10C764A0C86B9B8AB2502AE1E41D333E95
FILE: 14. Reading Letters.flac
Size: 26108494 Hash: 8FAC65D7499D2DF4348608B65053D604 Accuracy: -m0
Conclusion: CDDA 100%
Signature: 30999D5F2E6CCCCAC08D7FF5324B6250EF0C1CF4
FILE: 13. First Date (Pure Romance).flac
Size: 16339757 Hash: 550F0F11B312B1C94892305D6809998E Accuracy: -m0
Conclusion: CDDA 100%
Signature: 0CB4FA115523441BCB519EBCDEA657E6D029FD3A
FILE: 12. Solitude (Piano Song).flac
Size: 19028423 Hash: 2DC6A8C52A7098A99D7BED05AB248359 Accuracy: -m0
Conclusion: CDDA 100%
Signature: C878936C253B8969A7AF1DF35AD72F58F2BE0D98
FILE: 11. P.S. I Love You.flac
Size: 22989165 Hash: 001601B0FF871978258C3C19C43DCFBC Accuracy: -m0
Conclusion: CDDA 54%
Signature: 5F7C8096C2D982EFEDC1DC5FA1CA5A71D5E221ED
FILE: 10. Wonderful Chill Out Piano Music for Love.flac
Size: 33708781 Hash: 3C1D4945BDC833F9BA6373D043EA752C Accuracy: -m0
Conclusion: CDDA 100%
Signature: FABCD854BC56926C1D354555DECB62912F73DCB9
FILE: 09. A Morning in Paris.flac
Size: 33165421 Hash: 060443C16C82A9FB82F61E4DD726BB75 Accuracy: -m0
Conclusion: CDDA 100%
Signature: 1E8F8805B98B5BBC4F6066EAD7E5A6A7B814AD6A
FILE: 08. The Piano (Romantic Music).flac
Size: 24099585 Hash: 1160020072B1F7A632BE0C35F7FB459F Accuracy: -m0
Conclusion: CDDA 99%
Signature: 479AD1295BB26543DF19F3CB44AEE04B62A3EFBA
FILE: 07. Relaxing Piano Music.flac
Size: 22687487 Hash: 64C7B0353FC9E91A415C3E8327CB565C Accuracy: -m0
Conclusion: CDDA 94%
Signature: 1EDEAD30CF079D8A37BDA0E82A391FE229B2E949
FILE: 06. Rainy Day (Nature Power).flac
Size: 28694556 Hash: A6EC7B98851D77D71666CECFD0368380 Accuracy: -m0
Conclusion: CDDA 100%
Signature: 103B8AEEB311AE13A4B9E610F8212BC35F11A13F
FILE: 05. Crashing Waves.flac
Size: 34972951 Hash: 5FCE2FF7DCECB15C1305A060ED127899 Accuracy: -m0
Conclusion: CDDA 86%
Signature: 1403BBB5F607029BB6A13223A49111C077697697
FILE: 04. By the Sea.flac
Size: 30908470 Hash: 3839940B1478BC97FB2D409313ABD129 Accuracy: -m0
Conclusion: CDDA 100%
Signature: B486FEB440CE29385E51EB0B891744E711F735E7
FILE: 03. Serendipity (FIrst Love).flac
Size: 31570416 Hash: C8428371DFA037C8CDDCA20A5585C517 Accuracy: -m0
Conclusion: MPEG 90%
Signature: 9F4CC2D75007A406902B55C73D2746384D027D84
FILE: 02. Romance.flac
Size: 15125018 Hash: 1CEBFE3D71219383F65709C42AA8BCEF Accuracy: -m0
Conclusion: MPEG 100%
Signature: 50AA6A6303D23C15C8103F3809D396023E13E9C8
FILE: 01. Piano Soundscapes.flac
Size: 10506406 Hash: 98532AEE703B5D3C7A485D52A6235A28 Accuracy: -m0
Conclusion: MPEG 100%
Signature: F804BFA373AE4876E5D862D34BA0A721B68BB23A
Вверх