• Для скачивания альбомов c Облако Mail.Ru и Яндекс.Диск на нашем сайте необходимо зарегистрироваться.
  • Заказать необходимый альбом Вы можете в нашем специальном разделе "Стол заказов ".
Francesca Dego - Suite Italienne (2018) [WEB / FLAC / lossless]

Francesca Dego - Suite Italienne (2018) [WEB / FLAC / lossless]

нет прав для скачивания с cloud.mail.ru

Исполнитель: Francesca Dego
Альбом: Suite Italienne
Носитель: WEB альбом
Дата выпуска: 2018
Жанр: Classical
Формат: FLAC (tracks)
Битрейт: 1332-1434 kbps
Продолжительность: 01:13:09
Пароль на архив: grandorchestra

Треклист:
01. Respighi: Sonata for Violin and Piano in B Minor - 1. Moderato (feat. FRANCESCA LEONARDI) [00:10:21]
02.
Respighi: Sonata for Violin and Piano in B Minor - 2. Andante espressivo (feat. FRANCESCA LEONARDI) [00:08:38]
03.
Respighi: Sonata for Violin and Piano in B Minor - 3. Passacaglia - Allegro moderato ma energico (feat. FRANCESCA LEONARDI) [00:08:30]
04.
Castelnuovo-Tedesco: Ballade Op. 107 for Violin and Piano (feat. FRANCESCA LEONARDI) [00:11:48]
05.
Stravinsky: Suite Italienne from "Pulcinella" - Arr. by Stravinsky & Dushkin - 1. Introduzione (feat. FRANCESCA LEONARDI) [00:02:16]
06.
Stravinsky: Suite Italienne from "Pulcinella" - Arr. by Stravinsky & Dushkin - 2. Serenata (feat. FRANCESCA LEONARDI) [00:03:22]
07.
Stravinsky: Suite Italienne from "Pulcinella" - Arr. by Stravinsky & Dushkin - 3. Tarantella (feat. FRANCESCA LEONARDI) [00:02:25]
08.
Stravinsky: Suite Italienne from "Pulcinella" - Arr. by Stravinsky & Dushkin - 4. Gavotta con due variazioni (feat. FRANCESCA LEONARDI) [00:03:37]
09.
Stravinsky: Suite Italienne from "Pulcinella" - Arr. by Stravinsky & Dushkin - 5. Scherzino (feat. FRANCESCA LEONARDI) [00:01:21]
10.
Stravinsky: Suite Italienne from "Pulcinella" - Arr. by Stravinsky & Dushkin - 6. Minuetto e finale (feat. FRANCESCA LEONARDI) [00:05:25]
11.
Castelnuovo-Tedesco: 'Rosina', Fantasia for Violin and Piano from 'Il Barbiere di Siviglia' (feat. FRANCESCA LEONARDI) [00:05:48]
12.
Castelnuovo-Tedesco: 'Figaro', Fantasia for Violin and Piano from 'Il Barbiere di Siviglia' (feat. FRANCESCA LEONARDI) [00:06:05]
13.
Castelnuovo-Tedesco: 'Violetta', Fantasia for Violin and Piano from 'La Traviata' (feat. FRANCESCA LEONARDI) [00:03:28]

foobar2000 1.3.9 / Замер динамического диапазона (DR) 1.1.1
Дата отчёта: 2018-10-18 22:53:15

--------------------------------------------------------------------------------
Анализ: Francesca Dego / Suite Italienne
--------------------------------------------------------------------------------

DR Пики RMS Продолжительность трека
--------------------------------------------------------------------------------
DR13 -5.25 дБ -23.08 дБ 10:21 01-Respighi: Sonata for Violin and Piano in B Minor - 1. Moderato (feat. FRANCESCA LEONARDI)
DR15 -3.51 дБ -23.92 дБ 8:38 02-Respighi: Sonata for Violin and Piano in B Minor - 2. Andante espressivo (feat. FRANCESCA LEONARDI)
DR15 -0.08 дБ -20.75 дБ 8:30 03-Respighi: Sonata for Violin and Piano in B Minor - 3. Passacaglia - Allegro moderato ma energico (feat. FRANCESCA LEONARDI)
DR14 -4.16 дБ -23.04 дБ 11:48 04-Castelnuovo-Tedesco: Ballade Op. 107 for Violin and Piano (feat. FRANCESCA LEONARDI)
DR13 -6.88 дБ -24.64 дБ 2:16 05-Stravinsky: Suite Italienne from "Pulcinella" - Arr. by Stravinsky & Dushkin - 1. Introduzione (feat. FRANCESCA LEONARDI)
DR16 -3.61 дБ -26.84 дБ 3:23 06-Stravinsky: Suite Italienne from "Pulcinella" - Arr. by Stravinsky & Dushkin - 2. Serenata (feat. FRANCESCA LEONARDI)
DR14 -3.37 дБ -22.38 дБ 2:25 07-Stravinsky: Suite Italienne from "Pulcinella" - Arr. by Stravinsky & Dushkin - 3. Tarantella (feat. FRANCESCA LEONARDI)
DR13 -7.86 дБ -27.10 дБ 3:37 08-Stravinsky: Suite Italienne from "Pulcinella" - Arr. by Stravinsky & Dushkin - 4. Gavotta con due variazioni (feat. FRANCESCA LEONARDI)
DR12 -5.20 дБ -22.64 дБ 1:21 09-Stravinsky: Suite Italienne from "Pulcinella" - Arr. by Stravinsky & Dushkin - 5. Scherzino (feat. FRANCESCA LEONARDI)
DR15 -2.53 дБ -22.54 дБ 5:26 10-Stravinsky: Suite Italienne from "Pulcinella" - Arr. by Stravinsky & Dushkin - 6. Minuetto e finale (feat. FRANCESCA LEONARDI)
DR14 -6.48 дБ -25.87 дБ 5:48 11-Castelnuovo-Tedesco: 'Rosina', Fantasia for Violin and Piano from 'Il Barbiere di Siviglia' (feat. FRANCESCA LEONARDI)
DR13 -3.26 дБ -22.15 дБ 6:06 12-Castelnuovo-Tedesco: 'Figaro', Fantasia for Violin and Piano from 'Il Barbiere di Siviglia' (feat. FRANCESCA LEONARDI)
DR14 -7.73 дБ -28.22 дБ 3:29 13-Castelnuovo-Tedesco: 'Violetta', Fantasia for Violin and Piano from 'La Traviata' (feat. FRANCESCA LEONARDI)
--------------------------------------------------------------------------------

Количество треков: 13
Реальные значения DR: DR14

Частота: 48000 Гц
Каналов: 2
Разрядность: 24
Битрейт: 1350 кбит/с
Кодек: FLAC
================================================================================
Вверх