• Для скачивания альбомов c Облако Mail.Ru и Яндекс.Диск на нашем сайте необходимо зарегистрироваться.
  • Заказать необходимый альбом Вы можете в нашем специальном разделе "Стол заказов ".
Field Works - The National Road (2018) [WEB / FLAC / lossless]

Field Works - The National Road (2018) [WEB / FLAC / lossless]

нет прав для скачивания с cloud.mail.ru

Исполнитель: Field Works
Альбом: The National Road
Носитель: WEB альбом
Дата выпуска: 2018
Жанр: Alternative
Формат: FLAC (tracks)
Битрейт: 582-775 kbps
Продолжительность: 00:40:26
Скачать: filehost | turbobit | dfiles
Пароль на архив: grandorchestra

Треклист:
01. Street Overture - Continuous Cities [00:02:32]
02. Elevator - Cities and the Sky [00:03:02]
03. Now it's Ready - Cities and Memory [00:03:36]
04. Free About Me - Hidden Cities [00:03:21]
05. Looking for Help - Cities and Desire [00:03:07]
06. A Place to Sleep - Thin Cities [00:03:12]
07. I Am Alive - Cities and Eyes [00:03:46]
08. The Footprint - Trading Cities [00:03:08]
09. Scratches - Cities and Signs [00:03:45]
10. No Longer Strange - Cities and Names [00:03:31]
11. Fossils - Cities and the Dead [00:04:05]
12. Mediated World - Cities and the Field [00:03:15]

foobar2000 1.3.9 / Замер динамического диапазона (DR) 1.1.1
Дата отчёта: 2018-10-27 11:00:24

--------------------------------------------------------------------------------
Анализ: Field Works & B. Fleischmann / The National Road (1)
Field Works & Daring Ear / The National Road (2-3)
Field Works & Forrest Lewinger / The National Road (4-5)
Field Works & Lali Puna / The National Road (6)
Field Works & Nick Zammuto / The National Road (7)
Field Works & Player Piano / The National Road (8)
Field Works & Prototokyo / The National Road (9)
Field Works & Stuart Hyatt / The National Road (10-11)
Field Works, Lullatone & Stuart Hyatt / The National Road (12)
--------------------------------------------------------------------------------

DR Пики RMS Продолжительность трека
--------------------------------------------------------------------------------
DR10 -0.24 дБ -12.22 дБ 3:36 03-Now it's Ready - Cities and Memory
DR9 -0.12 дБ -10.69 дБ 3:08 08-The Footprint - Trading Cities
DR8 -0.12 дБ -10.53 дБ 3:46 09-Scratches - Cities and Signs
DR7 -0.12 дБ -9.73 дБ 3:03 02-Elevator - Cities and the Sky
DR11 -2.48 дБ -16.69 дБ 3:32 10-No Longer Strange - Cities and Names
DR11 -0.26 дБ -14.82 дБ 3:22 04-Free About Me - Hidden Cities
DR10 -0.21 дБ -13.48 дБ 3:46 07-I Am Alive - Cities and Eyes
DR9 -0.12 дБ -10.47 дБ 3:07 05-Looking for Help - Cities and Desire
DR7 -0.13 дБ -9.79 дБ 3:13 06-A Place to Sleep - Thin Cities
DR8 -0.27 дБ -10.04 дБ 2:32 01-Street Overture - Continuous Cities
DR8 -0.18 дБ -9.67 дБ 3:16 12-Mediated World - Cities and the Field
DR11 -0.58 дБ -15.38 дБ 4:05 11-Fossils - Cities and the Dead
--------------------------------------------------------------------------------

Количество треков: 12
Реальные значения DR: DR9

Частота: 44100 Гц
Каналов: 2
Разрядность: 16
Битрейт: 708 кбит/с
Кодек: FLAC
================================================================================
-----------------------

DON'T MODIFY THIS FILE

-----------------------

PERFORMER: auCDtect Task Manager, ver. 1.6.0 RC1 build 1.6.0.1
Copyright (c) 2008-2010 y-soft. All rights reserved
http://y-soft.org

ANALYZER: auCDtect: CD records authenticity detector, version 0.8.2
Copyright (c) 2004 Oleg Berngardt. All rights reserved.
Copyright (c) 2004 Alexander Djourik. All rights reserved.


FILE: 12. Mediated World - Cities and the Field.flac
Size: 14870668 Hash: C4A86179D67438DD29964861BDCF9E83 Accuracy: -m0
Conclusion: CDDA 100%
Signature: 9919BA3B372DB1A66D02E61A6512B7F41D583E9B
FILE: 11. Fossils - Cities and the Dead.flac
Size: 21758682 Hash: 051D4054464B0DA7B9FC6FD8A956D781 Accuracy: -m0
Conclusion: CDDA 100%
Signature: 93310C933B62FDE2E7501C008D5879ED0159EAAD
FILE: 10. No Longer Strange - Cities and Names.flac
Size: 19123825 Hash: 9D0619A463DD72C8D18053000A7D078E Accuracy: -m0
Conclusion: CDDA 100%
Signature: D98C986FCF8C26D1409DF5A2E06C32E81D928CF3
FILE: 09. Scratches - Cities and Signs.flac
Size: 21206724 Hash: 35BEBCFC8238CAD27763291D20A0E4F2 Accuracy: -m0
Conclusion: CDDA 100%
Signature: AFD15F7BBE5CBAB4958D60D829CB9F40EC4010D7
FILE: 08. The Footprint - Trading Cities.flac
Size: 15127746 Hash: 607DBD99300F61AFC2AEF18D1347884E Accuracy: -m0
Conclusion: CDDA 100%
Signature: 5871492292B25AA391FDE6862C8E2519AA1617E8
FILE: 07. I Am Alive - Cities and Eyes.flac
Size: 21986077 Hash: 77312685671446F16FA5D3C78EFFF757 Accuracy: -m0
Conclusion: CDDA 100%
Signature: 60B0FC21C6BE923104158086385C0B9FD15A6A71
FILE: 06. A Place to Sleep - Thin Cities.flac
Size: 17707743 Hash: 419DD62DF53BD9E9B762A10DDC1D05A2 Accuracy: -m0
Conclusion: CDDA 99%
Signature: DAFD195D38F6C5DC35043EC4F1DEDF6316F687CA
FILE: 05. Looking for Help - Cities and Desire.flac
Size: 18179900 Hash: 1A3DAFA151F02C0B2464E78D05C632DB Accuracy: -m0
Conclusion: CDDA 100%
Signature: FD2D0C6844CA59A58EFD43C34B6E643214C9C836
FILE: 04. Free About Me - Hidden Cities.flac
Size: 14728395 Hash: D638A25172D0A4A15E640CCE0101089E Accuracy: -m0
Conclusion: CDDA 100%
Signature: 44710302F2002F7513E277139FADE55AF7F48CBD
FILE: 03. Now it's Ready - Cities and Memory.flac
Size: 19396498 Hash: C58A479CB266698BFC8CD3006FF5CFD7 Accuracy: -m0
Conclusion: CDDA 100%
Signature: AA6B6345229DD696F8FB13D9CEC39B38C22212B6
FILE: 02. Elevator - Cities and the Sky.flac
Size: 17493472 Hash: B285F0FAA9C92CF003AB3AA9574DD91C Accuracy: -m0
Conclusion: CDDA 100%
Signature: E1E37E63FBF2FAF7080D15597ADA30C833B5A408
FILE: 01. Street Overture - Continuous Cities.flac
Size: 12386153 Hash: 0286BBF2DE8D430C39B041CDAD3B8334 Accuracy: -m0
Conclusion: CDDA 100%
Signature: AAC88EFEA600DC7ED87CAE3AC7A627D625D96EBC
Вверх