• Для скачивания альбомов c Облако Mail.Ru и Яндекс.Диск на нашем сайте необходимо зарегистрироваться.
  • Заказать необходимый альбом Вы можете в нашем специальном разделе "Стол заказов ".
Field Works - Initial Sounds (2018) [WEB / FLAC / lossless]

Field Works - Initial Sounds (2018) [WEB / FLAC / lossless]

нет прав для скачивания с cloud.mail.ru

Исполнитель: Field Works
Альбом: Initial Sounds
Носитель: WEB альбом
Дата выпуска: 2018
Жанр: Alternative
Формат: FLAC (tracks)
Битрейт: 655-782 kbps
Продолжительность: 01:21:01
Пароль на архив: grandorchestra

Треклист:
01. Kinematic Wave [00:08:52]
02.
Into the Flux [00:08:49]
03.
Flow [00:08:03]
04.
Potentially Lahars [00:10:02]
05.
LIGO [00:20:00]
06.
Spacetime Drift [00:18:39]
07.
The First Sound [00:06:33]

foobar2000 1.3.9 / Замер динамического диапазона (DR) 1.1.1
Дата отчёта: 2018-10-19 13:36:56

--------------------------------------------------------------------------------
Анализ: Field Works & Dan Deacon / Initial Sounds (1)
Field Works & Gazelle Twin / Initial Sounds (2)
Field Works & Kaitlyn Aurelia Smith / Initial Sounds (3)
Field Works & Pantha Du Prince / Initial Sounds (4)
Field Works & Stuart Hyatt / Initial Sounds (5)
Field Works & The Field / Initial Sounds (6)
Field Works & Visible Cloaks / Initial Sounds (7)
--------------------------------------------------------------------------------

DR Пики RMS Продолжительность трека
--------------------------------------------------------------------------------
DR9 -0.42 дБ -12.12 дБ 10:03 04-Potentially Lahars
DR9 -0.49 дБ -12.41 дБ 8:49 02-Into the Flux
DR10 -3.07 дБ -15.77 дБ 8:52 01-Kinematic Wave
DR8 -0.23 дБ -11.03 дБ 18:39 06-Spacetime Drift
DR10 -0.23 дБ -12.98 дБ 6:34 07-The First Sound
DR10 -0.46 дБ -14.30 дБ 20:01 05-LIGO
DR10 -0.48 дБ -14.06 дБ 8:04 03-Flow
--------------------------------------------------------------------------------

Количество треков: 7
Реальные значения DR: DR9

Частота: 44100 Гц
Каналов: 2
Разрядность: 16
Битрейт: 781 кбит/с
Кодек: FLAC
================================================================================
-----------------------

DON'T MODIFY THIS FILE

-----------------------

PERFORMER: auCDtect Task Manager, ver. 1.6.0 RC1 build 1.6.0.1
Copyright (c) 2008-2010 y-soft. All rights reserved
http://y-soft.org

ANALYZER: auCDtect: CD records authenticity detector, version 0.8.2
Copyright (c) 2004 Oleg Berngardt. All rights reserved.
Copyright (c) 2004 Alexander Djourik. All rights reserved.


FILE: 07. The First Sound.flac
Size: 33024887 Hash: 562F432C215B19967CD04E97C094BF95 Accuracy: -m0
Conclusion: CDDA 100%
Signature: DEEDB9860F5D2AB151965C982D08A75E062C40F6
FILE: 06. Spacetime Drift.flac
Size: 109531841 Hash: 094131BF64C7CEFF2CAC9C42859C9791 Accuracy: -m0
Conclusion: CDDA 100%
Signature: D8450F26DDD9A12BA857B00843E7462F0870733E
FILE: 05. LIGO.flac
Size: 98461121 Hash: 656C5A9F1B01AE8A42DB0B6D84B7C4FB Accuracy: -m0
Conclusion: CDDA 100%
Signature: F3D78C0A3B9CB6C14511A3AA57EF126A49588C59
FILE: 04. Potentially Lahars.flac
Size: 58127071 Hash: 96C58D3EF1B714812F4B736F639BDF95 Accuracy: -m0
Conclusion: CDDA 100%
Signature: E5AE35D867051AC9DAF833E349FF52124D6BDD2F
FILE: 03. Flow.flac
Size: 47254978 Hash: F85393BD7DF518EF558B85BC8409483F Accuracy: -m0
Conclusion: CDDA 100%
Signature: 7794ABD9DD7A3C7B40730B0176F50CC5DF2B5CF1
FILE: 02. Into the Flux.flac
Size: 44172117 Hash: 102E49B00F701A7935EC0D26D381E9FF Accuracy: -m0
Conclusion: CDDA 100%
Signature: 70039E1281909AAE52FE9B53A3F2D89C04E2490F
FILE: 01. Kinematic Wave.flac
Size: 46753686 Hash: 22AA29E0427CD9D1193B9EE06DCA3859 Accuracy: -m0
Conclusion: CDDA 100%
Signature: BB86AF60686413E57696332AC7E80EB10100A2E5
Вверх