• Для скачивания альбомов c Облако Mail.Ru и Яндекс.Диск на нашем сайте необходимо зарегистрироваться.
  • Заказать необходимый альбом Вы можете в нашем специальном разделе "Стол заказов ".
Eminem - Kamikaze (2018) [WEB / FLAC / lossless]

Eminem - Kamikaze (2018) [WEB / FLAC / lossless]

нет прав для скачивания с cloud.mail.ru

Исполнитель: Eminem
Альбом: Kamikaze
Носитель: WEB альбом
Дата выпуска: 2018-08-31
Жанр: Hip-Hop/Rap
Формат: FLAC (tracks)
Битрейт: 387-945 kbps
Продолжительность: 00:45:55
Пароль на архив: grandorchestra

Треклист:
01. The Ringer [00:05:37]
02.
Greatest [00:03:46]
03.
Lucky You [00:04:04]
04.
Paul (Skit) [00:00:35]
05.
Normal [00:03:42]
06.
Em Calls Paul (Skit) [00:00:49]
07.
Stepping Stone [00:05:09]
08.
Not Alike [00:04:48]
09.
Kamikaze [00:03:36]
10.
Fall [00:04:22]
11.
Nice Guy [00:02:30]
12.
Good Guy [00:02:22]
13.
Venom (Music From The Motion Picture) [00:04:29]

foobar2000 1.3.9 / Замер динамического диапазона (DR) 1.1.1
Дата отчёта: 2018-09-23 00:22:41

--------------------------------------------------------------------------------
Анализ: Eminem, Jessie Reyez / Kamikaze (1-2)
Eminem, Joyner Lucas / Kamikaze (3)
Eminem, Royce da 5'9" / Kamikaze (4)
Eminem / Kamikaze (5-12)
Paul Rosenberg / Kamikaze (13)
--------------------------------------------------------------------------------

DR Пики RMS Продолжительность трека
--------------------------------------------------------------------------------
DR4 -0.17 дБ -5.30 дБ 2:31 11-Nice Guy
DR5 -0.13 дБ -8.97 дБ 2:22 12-Good Guy
DR5 -0.08 дБ -7.49 дБ 4:05 03-Lucky You
DR5 -0.12 дБ -6.66 дБ 4:48 08-Not Alike
DR6 -0.35 дБ -7.58 дБ 5:10 07-Stepping Stone
DR6 -0.06 дБ -7.36 дБ 5:38 01-The Ringer
DR5 -0.14 дБ -6.69 дБ 3:47 02-Greatest
DR8 0.00 дБ -9.33 дБ 3:42 05-Normal
DR11 0.00 дБ -12.53 дБ 0:49 06-Em Calls Paul (Skit)
DR6 0.00 дБ -7.98 дБ 3:36 09-Kamikaze
DR6 -0.08 дБ -7.81 дБ 4:22 10-Fall
DR5 -0.15 дБ -6.05 дБ 4:30 13-Venom (Music From The Motion Picture)
DR12 -0.16 дБ -14.43 дБ 0:35 04-Paul (Skit)
--------------------------------------------------------------------------------

Количество треков: 13
Реальные значения DR: DR6

Частота: 44100 Гц
Каналов: 2
Разрядность: 16
Битрейт: 388 кбит/с
Кодек: FLAC
================================================================================

-----------------------

DON'T MODIFY THIS FILE

-----------------------

PERFORMER: auCDtect Task Manager, ver. 1.6.0 RC1 build 1.6.0.1
Copyright (c) 2008-2010 y-soft. All rights reserved
http://y-soft.org

ANALYZER: auCDtect: CD records authenticity detector, version 0.8.2
Copyright (c) 2004 Oleg Berngardt. All rights reserved.
Copyright (c) 2004 Alexander Djourik. All rights reserved.


FILE: 13. Venom (Music From The Motion Picture).flac
Size: 32104322 Hash: 762D20EC12F6CB7AB5679690E225D563 Accuracy: -m0
Conclusion: CDDA 100%
Signature: 4F49C92901560740B521FC276EF2614E8F283B1A
FILE: 12. Good Guy.flac
Size: 15932477 Hash: 667AD1AF9BF44FF9515281243793F044 Accuracy: -m0
Conclusion: CDDA 100%
Signature: 84F531B66E1B3C7720C8501F21D4058AD675ABF5
FILE: 11. Nice Guy.flac
Size: 15111425 Hash: 39EB026AA3AB1C06DB3610AE4B805E95 Accuracy: -m0
Conclusion: CDDA 100%
Signature: C4B6E49783D7D49AABE288767FA03408F4A010AE
FILE: 10. Fall.flac
Size: 29235601 Hash: DF1025C4D922CA4E3950DFBDCC8D921A Accuracy: -m0
Conclusion: CDDA 100%
Signature: 313C71167090FBE83BCA69B17177773C5145C83C
FILE: 9. Kamikaze.flac
Size: 25430665 Hash: 42599E33C5A48727DCF55D9929513187 Accuracy: -m0
Conclusion: CDDA 100%
Signature: B620BB02B7DF74D2FD1CFDA7B8F44F0A426E5AB1
FILE: 8. Not Alike.flac
Size: 32361971 Hash: 2DEF7E6F2A0ADBA85A7338A889703109 Accuracy: -m0
Conclusion: CDDA 100%
Signature: 9346A65F024BC8D0DC38C2A7B6D1F5A9F085416F
FILE: 7. Stepping Stone.flac
Size: 36068991 Hash: 378604126D9F58146753310751BDA0AA Accuracy: -m0
Conclusion: CDDA 99%
Signature: CDCF30FA36FA9D5A00086F16060383E25CF74AEC
FILE: 6. Em Calls Paul (Skit).flac
Size: 3290830 Hash: 03D26DBFB2A62179AE6206C325229608 Accuracy: -m0
Conclusion: CDDA 100%
Signature: 0B37BD6B110FCDE628BAC72E5C996FDBFA4444DE
FILE: 5. Normal.flac
Size: 24488992 Hash: 1643E787AEBAA7744AC9441B19B0CCEA Accuracy: -m0
Conclusion: CDDA 100%
Signature: 39819D620BE95945F9B7D0D2FC350E9300047B7D
FILE: 4. Paul (Skit).flac
Size: 1951043 Hash: 3182A11EEE5E6C76BA1C7F20EF2705F4 Accuracy: -m0
Conclusion: CDDA 58%
Signature: 635788CFB53A786256AFB06B9BA9876D1D715760
FILE: 3. Lucky You.flac
Size: 28194044 Hash: 0F0EA00D11388EDF1B8E27194F80364C Accuracy: -m0
Conclusion: CDDA 100%
Signature: 68AAB909E65C7C27CE178A0AEE830E8852AF609F
FILE: 2. Greatest.flac
Size: 24917181 Hash: 37E3D0BCB3BF7E92EDE389892EDE66A6 Accuracy: -m0
Conclusion: CDDA 100%
Signature: 6FF0AE04D506E2DC917CE379B12E2F82E14D1254
FILE: 1. The Ringer.flac
Size: 33689405 Hash: 8D18E95C0E1AA8E9A9F090FB9D5F40CE Accuracy: -m0
Conclusion: CDDA 100%
Signature: 735E20FC744ABA592E31CF1F66A40971B20CF3E4
Вверх