• Для скачивания альбомов c Облако Mail.Ru и Яндекс.Диск на нашем сайте необходимо зарегистрироваться.
  • Заказать необходимый альбом Вы можете в нашем специальном разделе "Стол заказов ".
Elisa - Diari Aperti (2018) [WEB / FLAC / lossless]

Elisa - Diari Aperti (2018) [WEB / FLAC / lossless]

нет прав для скачивания с cloud.mail.ru

Исполнитель: Elisa
Альбом: Diari Aperti
Носитель: WEB альбом
Дата выпуска: 2018
Жанр: Pop
Формат: FLAC (tracks)
Битрейт: 822-1028 kbps
Продолжительность: 00:40:07
Скачать: filehost | turbobit | dfiles | douploads
Пароль на архив: grandorchestra

Треклист:
01. Tutta Un'Altra Storia [00:03:21]
02.
Se Piovesse Il Tuo Nome [00:03:22]
03.
Tua Per Sempre [00:03:27]
04.
Anche Fragile [00:03:59]
05.
Promettimi [00:03:55]
06.
L'Amore Per Te [00:03:41]
07.
L'Estate È Già Fuori [00:03:20]
08.
Con Te Mi Sento Così [00:03:03]
09.
Vivere Tutte Le Vite [00:03:47]
10.
Come Fosse Adesso [00:03:44]
11.
Quelli Che Restano [00:04:25]

foobar2000 1.3.9 / Замер динамического диапазона (DR) 1.1.1
Дата отчёта: 2018-10-30 06:37:50

--------------------------------------------------------------------------------
Анализ: Elisa / Diari Aperti
--------------------------------------------------------------------------------

DR Пики RMS Продолжительность трека
--------------------------------------------------------------------------------
DR4 -0.10 дБ -6.95 дБ 3:21 01-Tutta Un'Altra Storia
DR4 -0.10 дБ -6.46 дБ 3:23 02-Se Piovesse Il Tuo Nome
DR6 -0.10 дБ -7.37 дБ 3:27 03-Tua Per Sempre
DR4 -0.10 дБ -5.66 дБ 4:00 04-Anche Fragile
DR5 -0.10 дБ -8.61 дБ 3:55 05-Promettimi
DR4 -0.10 дБ -5.82 дБ 3:41 06-L'Amore Per Te
DR4 -0.10 дБ -5.69 дБ 3:20 07-L'Estate È Già Fuori
DR6 -0.80 дБ -8.63 дБ 3:03 08-Con Te Mi Sento Così
DR6 -0.10 дБ -7.39 дБ 3:47 09-Vivere Tutte Le Vite
DR6 -0.10 дБ -9.36 дБ 3:44 10-Come Fosse Adesso
DR6 -0.01 дБ -8.51 дБ 4:26 11-Quelli Che Restano
--------------------------------------------------------------------------------

Количество треков: 11
Реальные значения DR: DR5

Частота: 44100 Гц
Каналов: 2
Разрядность: 16
Битрейт: 823 кбит/с
Кодек: FLAC
================================================================================
-----------------------

DON'T MODIFY THIS FILE

-----------------------

PERFORMER: auCDtect Task Manager, ver. 1.6.0 RC1 build 1.6.0.1
Copyright (c) 2008-2010 y-soft. All rights reserved
http://y-soft.org

ANALYZER: auCDtect: CD records authenticity detector, version 0.8.2
Copyright (c) 2004 Oleg Berngardt. All rights reserved.
Copyright (c) 2004 Alexander Djourik. All rights reserved.


FILE: 11. Quelli Che Restano.flac
Size: 27329974 Hash: A037325CD2C354DD940815216AE450BB Accuracy: -m0
Conclusion: CDDA 100%
Signature: D0E2C4F2A7423097B95A0AD7276BECF3AE3FB5D5
FILE: 10. Come Fosse Adesso.flac
Size: 23126552 Hash: 0C93987B71CCDA6FCCE423D1F6F62C64 Accuracy: -m0
Conclusion: CDDA 100%
Signature: DCC24FED0C5C96EB3AA869DA62EBF7168FE90ADE
FILE: 09. Vivere Tutte Le Vite.flac
Size: 27394335 Hash: 286918FD64AD9965780560BAD4881004 Accuracy: -m0
Conclusion: CDDA 100%
Signature: 78176128E0084591CBE5FF1EBF053905A0A93A04
FILE: 08. Con Te Mi Sento Così.flac
Size: 21017259 Hash: 9943095011A2135AD01753EE7FC4FE9B Accuracy: -m0
Conclusion: CDDA 100%
Signature: 3B6D495794EE099890D1A5627178BCC0244A0766
FILE: 07. L'estate È Già Fuori.flac
Size: 24236432 Hash: 29B53A1821215677D164107D75989660 Accuracy: -m0
Conclusion: MPEG 95%
Signature: EC2EFDE7A2FA89A1BF8AEB601E98BB6663DF7E21
FILE: 06. L'amore Per Te.flac
Size: 28019965 Hash: 80240DD70811FB75DE15F861A7659E6E Accuracy: -m0
Conclusion: MPEG 95%
Signature: 3DDDADCDCCFC282DAB7A7392F109AF395D523B3C
FILE: 05. Promettimi.flac
Size: 26256502 Hash: B8C072C8A62A06408973B70FD9864621 Accuracy: -m0
Conclusion: CDDA 100%
Signature: 1B04F0968270379C2848D8448861E5203001E0CF
FILE: 04. Anche Fragile.flac
Size: 28574758 Hash: 03BA010793E7B77DB0215113DDFC5EF7 Accuracy: -m0
Conclusion: MPEG 95%
Signature: 36E92DEBF7E6D2F717264231F770D1EA2806CA75
FILE: 03. Tua Per Sempre.flac
Size: 24629890 Hash: 3AD88D82ED068B5A26296A8A5727EFDC Accuracy: -m0
Conclusion: MPEG 95%
Signature: B1F08E32CE63CDFBFCC9FDB0F15960B512BDC240
FILE: 02. Se Piovesse Il Tuo Nome.flac
Size: 24353909 Hash: 7C3E729E9092C439327936C5C305BDCF Accuracy: -m0
Conclusion: CDDA 100%
Signature: E32782E0B972942F36AFD7E52644D5AECB2D75E6
FILE: 01. Tutta Un'altra Storia.flac
Size: 25848681 Hash: 87663B96062F8699DA13087FF3DF673B Accuracy: -m0
Conclusion: CDDA 99%
Signature: A086B6DF0DC75A46AA7EAF0CEC0302C00CE97086
Вверх