• Для скачивания альбомов c Облако Mail.Ru и Яндекс.Диск на нашем сайте необходимо зарегистрироваться.
  • Заказать необходимый альбом Вы можете в нашем специальном разделе "Стол заказов ".
Donna Summer - Lady Of The Night (1974) (Remastered 2001) [WEB / FLAC / lossless]

Donna Summer - Lady Of The Night (1974) (Remastered 2001) [WEB / FLAC / lossless]

нет прав для скачивания с cloud.mail.ru
  • Автор rdf
  • Дата создания
  • Рекомендуемый

Исполнитель: Donna Summer
Альбом: Lady Of The Night (Remastered)
Носитель: WEB альбом
Дата выпуска: 1974
Жанр: R&B / Soul
Формат: FLAC (tracks)
Битрейт: 899-1028 kbps
Продолжительность: 00:31:06
Пароль на архив: grandorchestra

Треклист:
01. Lady of the Night (Remastered) [00:03:56]
02.
Born to Die (Remastered) [00:03:19]
03.
Friends (Remastered) [00:03:26]
04.
Domino (Remastered) [00:03:12]
05.
The Hostage (Remastered) [00:04:15]
06.
Wounded (Remastered) [00:02:41]
07.
Little Miss Fit (Remastered) [00:03:03]
08.
Let's Work Together Now (Remastered) [00:03:53]
09.
Sing Along (Sad Song)[Remastered] [00:03:16]

foobar2000 1.3.9 / Замер динамического диапазона (DR) 1.1.1
Дата отчёта: 2018-09-30 17:56:53

--------------------------------------------------------------------------------
Анализ: Donna Summer / Lady Of The Night (Remastered)
--------------------------------------------------------------------------------

DR Пики RMS Продолжительность трека
--------------------------------------------------------------------------------
DR7 -0.10 дБ -8.49 дБ 3:57 01-Lady of the Night (Remastered)
DR7 -0.10 дБ -9.29 дБ 3:20 02-Born to Die (Remastered)
DR7 -0.10 дБ -8.58 дБ 3:27 03-Friends (Remastered)
DR7 -0.10 дБ -8.32 дБ 3:12 04-Domino (Remastered)
DR6 -0.10 дБ -8.43 дБ 4:16 05-The Hostage (Remastered)
DR7 -0.10 дБ -8.37 дБ 2:41 06-Wounded (Remastered)
DR7 -0.10 дБ -8.25 дБ 3:03 07-Little Miss Fit (Remastered)
DR7 -0.10 дБ -8.22 дБ 3:53 08-Let's Work Together Now (Remastered)
DR7 -0.10 дБ -9.22 дБ 3:16 09-Sing Along (Sad Song)[Remastered]
--------------------------------------------------------------------------------

Количество треков: 9
Реальные значения DR: DR7

Частота: 44100 Гц
Каналов: 2
Разрядность: 16
Битрейт: 900 кбит/с
Кодек: FLAC
================================================================================
-----------------------

DON'T MODIFY THIS FILE

-----------------------

PERFORMER: auCDtect Task Manager, ver. 1.6.0 RC1 build 1.6.0.1
Copyright (c) 2008-2010 y-soft. All rights reserved
http://y-soft.org

ANALYZER: auCDtect: CD records authenticity detector, version 0.8.2
Copyright (c) 2004 Oleg Berngardt. All rights reserved.
Copyright (c) 2004 Alexander Djourik. All rights reserved.


FILE: 09. Sing Along (Sad Song)[Remastered].flac
Size: 22365868 Hash: 7615BE7866A1427844F16645868E5CA9 Accuracy: -m0
Conclusion: CDDA 100%
Signature: B13E2F73B76D614338A24C49D5D502E5E6993AE7
FILE: 08. Let's Work Together Now (Remastered).flac
Size: 28453086 Hash: 1116500C60A6835D1E3C3FEA24EFC6B4 Accuracy: -m0
Conclusion: CDDA 100%
Signature: A36B55EA8766ECE38B4F9349BAEA564289152884
FILE: 07. Little Miss Fit (Remastered).flac
Size: 23857197 Hash: 3AD284AA04B5033BFDA3238D678201C4 Accuracy: -m0
Conclusion: CDDA 100%
Signature: 5D208DE785C45A76F52B80553F3EBF63E6D5E91D
FILE: 06. Wounded (Remastered).flac
Size: 20585247 Hash: 12CB43006868897DC31B6B7FABF8E94D Accuracy: -m0
Conclusion: CDDA 100%
Signature: B0BF4F354850445C6DC39FFE1A499AC431673B7D
FILE: 05. The Hostage (Remastered).flac
Size: 32392550 Hash: 3570A6CB20480A340EB8AC24CC08400A Accuracy: -m0
Conclusion: CDDA 100%
Signature: FE33C718784469C346CF74C1ADA37747CB1938ED
FILE: 04. Domino (Remastered).flac
Size: 23825979 Hash: 44BA1AEC41F7F0323C1F759320299F54 Accuracy: -m0
Conclusion: CDDA 100%
Signature: FBE6CE10C37B4328C034DE2C658E15E09E4E8401
FILE: 03. Friends (Remastered).flac
Size: 24902114 Hash: 8E2365E36BD2062BF6A25934E3A2132E Accuracy: -m0
Conclusion: CDDA 100%
Signature: 7ACBA4C13E26EB5B69A36E6499279E84A9C76792
FILE: 02. Born to Die (Remastered).flac
Size: 24293775 Hash: 0CDDF8EF8F13FD88265BCBB693DE9260 Accuracy: -m0
Conclusion: CDDA 99%
Signature: B7D0D05418C89F125EE086C823B520E695DD0D0A
FILE: 01. Lady of the Night (Remastered).flac
Size: 30672658 Hash: 03054D991CE58F64209F6149A98932E8 Accuracy: -m0
Conclusion: CDDA 100%
Signature: 53A40E855A06596485956543B99854EAC40866A0
Вверх