• Для скачивания альбомов c Облако Mail.Ru и Яндекс.Диск на нашем сайте необходимо зарегистрироваться.
  • Заказать необходимый альбом Вы можете в нашем специальном разделе "Стол заказов ".
David Hazeltine, Ron Carter, Al Foster - The Time is Now (2018) [WEB / FLAC / lossless]

David Hazeltine, Ron Carter, Al Foster - The Time is Now (2018) [WEB / FLAC / lossless]

нет прав для скачивания с cloud.mail.ru

Исполнитель: David Hazeltine, Ron Carter, Al Foster
Альбом: The Time is Now
Носитель: WEB альбом
Дата выпуска: 2018
Жанр: Jazz
Формат: FLAC (tracks)
Битрейт: 438-886 kbps
Продолжительность: 01:04:19
Скачать: dfiles | douploads
Пароль на архив: grandorchestra

Треклист:
01. The Time is Now [00:06:45]
02.
The Odd Couple [00:05:25]
03.
Smoke Gets in Your Eyes [00:05:44]
04.
Cabin in the Sky [00:06:45]
05.
Blues for Eddie [00:05:08]
06.
Don't Let Me Be Lonely Tonight [00:05:08]
07.
When I'm Here with You [00:05:35]
08.
The Parlayer [00:04:41]
09.
In a Sentimental Mood [00:07:47]
10.
Muse of Montgomery [00:06:24]
11.
Signals [00:04:53]

foobar2000 1.3.9 / Замер динамического диапазона (DR) 1.1.1
Дата отчёта: 2018-10-31 21:26:31

--------------------------------------------------------------------------------
Анализ: David Hazeltine, Ron Carter, Al Foster / The Time is Now
--------------------------------------------------------------------------------

DR Пики RMS Продолжительность трека
--------------------------------------------------------------------------------
DR11 -1.08 дБ -14.44 дБ 6:45 01-The Time is Now
DR14 -1.17 дБ -17.76 дБ 5:25 02-The Odd Couple
DR9 -0.99 дБ -11.90 дБ 5:44 03-Smoke Gets in Your Eyes
DR12 -1.01 дБ -15.41 дБ 6:46 04-Cabin in the Sky
DR13 -1.17 дБ -16.51 дБ 5:09 05-Blues for Eddie
DR12 -1.10 дБ -16.03 дБ 5:09 06-Don't Let Me Be Lonely Tonight
DR13 -1.10 дБ -17.18 дБ 5:35 07-When I'm Here with You
DR11 -1.15 дБ -14.28 дБ 4:42 08-The Parlayer
DR13 -1.10 дБ -17.65 дБ 7:47 09-In a Sentimental Mood
DR12 -1.17 дБ -15.76 дБ 6:24 10-Muse of Montgomery
DR10 -1.14 дБ -14.58 дБ 4:53 11-Signals
--------------------------------------------------------------------------------

Количество треков: 11
Реальные значения DR: DR12

Частота: 44100 Гц
Каналов: 2
Разрядность: 16
Битрейт: 744 кбит/с
Кодек: FLAC
================================================================================
-----------------------

DON'T MODIFY THIS FILE

-----------------------

PERFORMER: auCDtect Task Manager, ver. 1.6.0 RC1 build 1.6.0.1
Copyright (c) 2008-2010 y-soft. All rights reserved
http://y-soft.org

ANALYZER: auCDtect: CD records authenticity detector, version 0.8.2
Copyright (c) 2004 Oleg Berngardt. All rights reserved.
Copyright (c) 2004 Alexander Djourik. All rights reserved.


FILE: 11. Signals.flac
Size: 27263619 Hash: C7ABDE02EF9BD8C700912F1C231907CC Accuracy: -m0
Conclusion: CDDA 100%
Signature: 4DE19E7A3CD7A89B1C57551F438EEA3387D94A64
FILE: 10. Muse Of Montgomery.flac
Size: 31994208 Hash: BE9621591B93B351AF4A654EFE5DFFD9 Accuracy: -m0
Conclusion: CDDA 100%
Signature: 58AA4AAE87058CE21B19C4CDD2752D233E88E21B
FILE: 09. In A Sentimental Mood.flac
Size: 33391999 Hash: E83378AE8FB23D163008719458B71085 Accuracy: -m0
Conclusion: CDDA 100%
Signature: 26B033F05AD36C38783433201E0F1B8650D64F3B
FILE: 08. The Parlayer.flac
Size: 28604768 Hash: 6616C76032480EF3E13CB4A8747B9164 Accuracy: -m0
Conclusion: CDDA 100%
Signature: B926FF5C89364AE1C67FDEA949FA97F0B9160B36
FILE: 07. When I'm Here With You.flac
Size: 26183170 Hash: 7E0AAAB7329887DEAD6585CF5BD43FA9 Accuracy: -m0
Conclusion: CDDA 100%
Signature: 55131F3318D0F284E0B997E0BE21871DEEDC4D7F
FILE: 06. Don't Let Me Be Lonely Tonight.flac
Size: 16925741 Hash: 31994E08FA1D1DE340361C4347243130 Accuracy: -m0
Conclusion: CDDA 92%
Signature: 19C128C2048D0AB5EB3E22E683BD9B9E37484828
FILE: 05. Blues For Eddie.flac
Size: 30335549 Hash: C5DA3B07ECC51D9E28112A6536130C4B Accuracy: -m0
Conclusion: CDDA 100%
Signature: 25017842397EFA396C4F9BFD30864B8724D5A008
FILE: 04. Cabin In The Sky.flac
Size: 37997880 Hash: 7E91A3F61D21C78611FEB6D3D793FDDE Accuracy: -m0
Conclusion: CDDA 100%
Signature: 5CCEC060664C9F13D8DA08E7411411CB9C077A34
FILE: 03. Smoke Gets In Your Eyes.flac
Size: 38154243 Hash: E45C988E867072AD7A89570104359507 Accuracy: -m0
Conclusion: CDDA 100%
Signature: 400ACBBC2A43A0899AA7438547DBAE1DC4A056C7
FILE: 02. The Odd Couple.flac
Size: 29587717 Hash: 883B1BD8351AD735E589408A79C100B2 Accuracy: -m0
Conclusion: CDDA 100%
Signature: 56D521371EA029FBF378EB948B71CBFFB57D9D5D
FILE: 01. The Time Is Now.flac
Size: 40356594 Hash: C5CCC1FD4C06C6F4E83B715B145CFB6B Accuracy: -m0
Conclusion: CDDA 100%
Signature: 29FD3415B1DD72085F2A2373AD8AFF77FAAE39A2
Вверх