• Для скачивания альбомов c Облако Mail.Ru и Яндекс.Диск на нашем сайте необходимо зарегистрироваться.
  • Заказать необходимый альбом Вы можете в нашем специальном разделе "Стол заказов ".
Catherine McGrath - The Acoustics (2018) [WEB / FLAC / lossless]

Catherine McGrath - The Acoustics (2018) [WEB / FLAC / lossless]

нет прав для скачивания с cloud.mail.ru

Исполнитель: Catherine McGrath
Альбом: The Acoustics
Носитель: WEB альбом
Дата выпуска: 2018
Жанр: Country
Формат: FLAC (tracks)
Битрейт: 755-935 kbps
Продолжительность: 00:30:36
Скачать: turbobit
Пароль на архив: grandorchestra

Треклист:
01. Talk of This Town (Acoustic) [00:03:27]
02.
The Edges (Acoustic) [00:03:27]
03.
Lost In The Middle (Acoustic) [00:03:27]
04.
Wild (Acoustic) [00:04:09]
05.
Thought It Was Gonna Be Me (Acoustic) [00:03:21]
06.
Good At Love (Acoustic) [00:03:05]
07.
Cinderella (Acoustic) [00:03:10]
08.
Just In Case (Acoustic) [00:03:14]
09.
She'll Never Love You (Acoustic) [00:03:14]

foobar2000 1.3.9 / Замер динамического диапазона (DR) 1.1.1
Дата отчёта: 2018-10-20 02:03:08

--------------------------------------------------------------------------------
Анализ: Catherine McGrath / The Acoustics
--------------------------------------------------------------------------------

DR Пики RMS Продолжительность трека
--------------------------------------------------------------------------------
DR7 -0.09 дБ -9.98 дБ 3:27 01-Talk of This Town (Acoustic)
DR9 -0.10 дБ -12.08 дБ 3:28 02-The Edges (Acoustic)
DR6 0.00 дБ -8.38 дБ 3:27 03-Lost In The Middle (Acoustic)
DR6 -0.10 дБ -9.54 дБ 4:09 04-Wild (Acoustic)
DR9 -0.10 дБ -11.31 дБ 3:22 05-Thought It Was Gonna Be Me (Acoustic)
DR7 0.00 дБ -9.06 дБ 3:05 06-Good At Love (Acoustic)
DR8 -0.11 дБ -10.13 дБ 3:10 07-Cinderella (Acoustic)
DR7 -0.09 дБ -9.97 дБ 3:14 08-Just In Case (Acoustic)
DR7 -0.11 дБ -9.28 дБ 3:14 09-She'll Never Love You (Acoustic)
--------------------------------------------------------------------------------

Количество треков: 9
Реальные значения DR: DR7

Частота: 44100 Гц
Каналов: 2
Разрядность: 16
Битрейт: 857 кбит/с
Кодек: FLAC
================================================================================
-----------------------

DON'T MODIFY THIS FILE

-----------------------

PERFORMER: auCDtect Task Manager, ver. 1.6.0 RC1 build 1.6.0.1
Copyright (c) 2008-2010 y-soft. All rights reserved
http://y-soft.org

ANALYZER: auCDtect: CD records authenticity detector, version 0.8.2
Copyright (c) 2004 Oleg Berngardt. All rights reserved.
Copyright (c) 2004 Alexander Djourik. All rights reserved.


FILE: 09. She'll Never Love You (Acoustic).flac
Size: 21067004 Hash: DC3F05F1095B9EDFE8887B3428309C87 Accuracy: -m0
Conclusion: CDDA 100%
Signature: 817218E8C22901C99A39DF5340BD6CB4B36E4038
FILE: 08. Just In Case (Acoustic).flac
Size: 19990414 Hash: B9C2B2F719A919D8F5992BFE3D221E39 Accuracy: -m0
Conclusion: CDDA 100%
Signature: E65785D36430741C959B54AC3ED18824F2650119
FILE: 07. Cinderella (Acoustic).flac
Size: 19124400 Hash: 25ABE1E0C9759313612EC29670D7D9E7 Accuracy: -m0
Conclusion: CDDA 100%
Signature: 1DDB37E34992E702922D7599EA20776ADAF4845A
FILE: 06. Good At Love (Acoustic).flac
Size: 20695057 Hash: 257B736AEE36AE662E3DF39907C2BA0E Accuracy: -m0
Conclusion: CDDA 100%
Signature: 42BE38D6F5E3E8CF3351D3EBAE722E573C6FE45C
FILE: 05. Thought It Was Gonna Be Me (Acoustic).flac
Size: 19557732 Hash: 57BCDD802B6E81D818A61481CD2902F6 Accuracy: -m0
Conclusion: CDDA 100%
Signature: E19067D02C600438917C3182EDBB69811F7E5D63
FILE: 04. Wild (Acoustic).flac
Size: 26080843 Hash: C1DDF3204053E57459D63A1EEADE6C5E Accuracy: -m0
Conclusion: CDDA 100%
Signature: 2D6B40CF3CAD6870AB73F4476357E0101FB16005
FILE: 03. Lost In The Middle (Acoustic).flac
Size: 24491941 Hash: 90CA32FBB93D9FDEBCF53FA5DD02AB9F Accuracy: -m0
Conclusion: CDDA 100%
Signature: EDB245508ACBC9C33430B83550FDFA263B2CE217
FILE: 02. The Edges (Acoustic).flac
Size: 19858083 Hash: A8FA24A2E096D93B9F92390C393DAB72 Accuracy: -m0
Conclusion: CDDA 100%
Signature: 54AD2D2D2DB056F9AD6BD0287D74C007C3630CF0
FILE: 01. Talk of This Town (Acoustic).flac
Size: 23464867 Hash: 2946C5C5E59E34B47670EBAE4B53583C Accuracy: -m0
Conclusion: CDDA 100%
Signature: BA38B28F24AEC0D027D271C01C16E94813166BAE
Вверх