• Для скачивания альбомов c Облако Mail.Ru и Яндекс.Диск на нашем сайте необходимо зарегистрироваться.
  • Заказать необходимый альбом Вы можете в нашем специальном разделе "Стол заказов ".
Cafe Del Mar - Buddha Bar (2018) [WEB / FLAC / lossless]

Cafe Del Mar - Buddha Bar (2018) [WEB / FLAC / lossless] 2018-10-25

нет прав для скачивания с cloud.mail.ru

Исполнитель: Cafe Del Mar
Альбом: Buddha Bar
Носитель: WEB альбом
Дата выпуска: 2018
Жанр: Chillout
Формат: FLAC (tracks)
Битрейт: 780-919 kbps
Продолжительность: 00:40:43
Скачать: filehost | turbobit | dfiles
Пароль на архив: grandorchestra

Треклист:
01. Airstream [00:02:02]
02.
Dark Side of the Groove [00:02:35]
03.
Dreamscape [00:02:05]
04.
Stonehenge [00:04:28]
05.
Sub Rosa [00:05:44]
06.
Entrance [00:05:42]
07.
Yakuza Cocaine [00:03:19]
08.
World Colours [00:01:36]
09.
Sonic Drone [00:02:19]
10.
Ground Control [00:07:32]
11.
Astral Seeker [00:03:16]

foobar2000 1.3.9 / Замер динамического диапазона (DR) 1.1.1
Дата отчёта: 2018-10-25 23:33:51

--------------------------------------------------------------------------------
Анализ: Cafe Del Mar / Buddha Bar
--------------------------------------------------------------------------------

DR Пики RMS Продолжительность трека
--------------------------------------------------------------------------------
DR8 -0.19 дБ -9.83 дБ 2:03 01-Airstream
DR8 -0.12 дБ -10.49 дБ 2:36 02-Dark Side of the Groove
DR8 -0.92 дБ -10.43 дБ 2:06 03-Dreamscape
DR10 0.00 дБ -11.37 дБ 4:28 04-Stonehenge
DR11 -0.30 дБ -12.69 дБ 5:44 05-Sub Rosa
DR10 0.00 дБ -11.39 дБ 5:43 06-Entrance
DR5 0.00 дБ -6.65 дБ 3:19 07-Yakuza Cocaine
DR8 -0.12 дБ -11.24 дБ 1:37 08-World Colours
DR9 0.00 дБ -10.60 дБ 2:20 09-Sonic Drone
DR5 0.00 дБ -6.22 дБ 7:32 10-Ground Control
DR7 0.00 дБ -9.34 дБ 3:16 11-Astral Seeker
--------------------------------------------------------------------------------

Количество треков: 11
Реальные значения DR: DR8

Частота: 44100 Гц
Каналов: 2
Разрядность: 16
Битрейт: 814 кбит/с
Кодек: FLAC
================================================================================
-----------------------

DON'T MODIFY THIS FILE

-----------------------

PERFORMER: auCDtect Task Manager, ver. 1.6.0 RC1 build 1.6.0.1
Copyright (c) 2008-2010 y-soft. All rights reserved
http://y-soft.org

ANALYZER: auCDtect: CD records authenticity detector, version 0.8.2
Copyright (c) 2004 Oleg Berngardt. All rights reserved.
Copyright (c) 2004 Alexander Djourik. All rights reserved.


FILE: 11. Astral Seeker.flac
Size: 19960593 Hash: 35CB5C975C8E3E8554CBEC0628ACC80E Accuracy: -m0
Conclusion: MPEG 95%
Signature: 34C4DDC94B275332629A7743E091664E7DE9FF44
FILE: 10. Ground Control.flac
Size: 44502658 Hash: 2A881CC9CF81D6C2E7071647284BC1A5 Accuracy: -m0
Conclusion: CDDA 100%
Signature: 9FDD3AE204DFA73880DC35648A8602D16154CAE7
FILE: 09. Sonic Drone.flac
Size: 14168175 Hash: 611831DDE82F8B7F7E40F7679B85C07B Accuracy: -m0
Conclusion: MPEG 95%
Signature: 1D4A39EA9DD6138C4BB7F731BC5AE1F433969EE8
FILE: 08. World Colours.flac
Size: 10864058 Hash: 234C51D98003AFFA9DD0F99AF461A4FE Accuracy: -m0
Conclusion: CDDA 100%
Signature: C102C0B21C386B19E7702C80582C7AEA0894F56A
FILE: 07. Yakuza Cocaine.flac
Size: 21339533 Hash: FE2DBEE2EB1E8866AE4165C906C8C82C Accuracy: -m0
Conclusion: CDDA 100%
Signature: AA43E8EC5DEABE52C24310CF3D8A2F534C555BA7
FILE: 06. Entrance.flac
Size: 33462864 Hash: D11C84398D58E3319A0CBA4C5B6594E9 Accuracy: -m0
Conclusion: CDDA 100%
Signature: 59978C01A3C070C439937879E2FD2B6E6EBCF46A
FILE: 05. Sub Rosa.flac
Size: 39565356 Hash: A0EC684E069AA3E784354D302D56A4F5 Accuracy: -m0
Conclusion: MPEG 95%
Signature: 2E8380C65AE6A3E993182F4BD92DA89D26BBF488
FILE: 04. Stonehenge.flac
Size: 28278669 Hash: 846DADCBC9707A4FBF2D27C780F83E25 Accuracy: -m0
Conclusion: CDDA 99%
Signature: 5B82DF168A1875ACEA51B15AC530F54D50520B46
FILE: 03. Dreamscape.flac
Size: 13824888 Hash: 6C4A8B24CE13FB622F1C93156C41D201 Accuracy: -m0
Conclusion: MPEG 95%
Signature: CF99FFC311F99A0E1E8636790C9459141EEBF574
FILE: 02. Dark Side Of The Groove.flac
Size: 17683525 Hash: C2BAE1C71364C5E3CD0DA551324D0808 Accuracy: -m0
Conclusion: CDDA 100%
Signature: A34884C473C2C1569DC189EDA2C249FB372A4EAD
FILE: 01. Airstream.flac
Size: 13707108 Hash: 7BB4C5E3F7D514BCFE83924F98137F5E Accuracy: -m0
Conclusion: MPEG 95%
Signature: EA6955CBCEA2BE6C1554F88BA1501857F466D405
Вверх