• Для скачивания альбомов c Облако Mail.Ru и Яндекс.Диск на нашем сайте необходимо зарегистрироваться.
  • Заказать необходимый альбом Вы можете в нашем специальном разделе "Стол заказов ".
Buxton - Stay Out Late (2018) [WEB / FLAC / lossless]

Buxton - Stay Out Late (2018) [WEB / FLAC / lossless]

нет прав для скачивания с cloud.mail.ru

Исполнитель: Buxton
Альбом: Stay Out Late
Носитель: WEB альбом
Дата выпуска: 2018-10-19
Жанр: Rock
Формат: FLAC (tracks)
Битрейт: 777-985 kbps
Продолжительность: 00:43:57
Скачать: filehost | turbobit | dfiles
Пароль на архив: grandorchestra

Треклист:
01. This Place Reminds Me of You [00:03:47]
02.
Jan [00:03:24]
03.
Blood Runs Blue [00:03:55]
04.
Haunt You [00:03:13]
05.
Hanging On the Coast [00:04:39]
06.
Inside Out [00:02:40]
07.
Miles And Miles [00:04:22]
08.
New World [00:03:25]
09.
Made for Now [00:04:40]
10.
Hole Heart [00:03:56]
11.
Green of Endless Pines [00:05:50]

foobar2000 1.3.9 / Замер динамического диапазона (DR) 1.1.1
Дата отчёта: 2018-10-22 22:33:41

--------------------------------------------------------------------------------
Анализ: Buxton / Stay Out Late
--------------------------------------------------------------------------------

DR Пики RMS Продолжительность трека
--------------------------------------------------------------------------------
DR7 -0.03 дБ -8.92 дБ 3:47 01-This Place Reminds Me of You
DR6 -0.04 дБ -7.10 дБ 3:25 02-Jan
DR6 0.00 дБ -7.75 дБ 3:56 03-Blood Runs Blue
DR7 -0.75 дБ -10.50 дБ 3:14 04-Haunt You
DR6 0.00 дБ -8.57 дБ 4:39 05-Hanging On the Coast
DR6 0.00 дБ -6.90 дБ 2:40 06-Inside Out
DR6 0.00 дБ -8.29 дБ 4:22 07-Miles And Miles
DR6 -0.29 дБ -9.26 дБ 3:26 08-New World
DR4 0.00 дБ -5.51 дБ 4:41 09-Made for Now
DR6 0.00 дБ -7.46 дБ 3:56 10-Hole Heart
DR6 0.00 дБ -8.30 дБ 5:51 11-Green of Endless Pines
--------------------------------------------------------------------------------

Количество треков: 11
Реальные значения DR: DR6

Частота: 44100 Гц
Каналов: 2
Разрядность: 16
Битрейт: 779 кбит/с
Кодек: FLAC
================================================================================
-----------------------

DON'T MODIFY THIS FILE

-----------------------

PERFORMER: auCDtect Task Manager, ver. 1.6.0 RC1 build 1.6.0.1
Copyright (c) 2008-2010 y-soft. All rights reserved
http://y-soft.org

ANALYZER: auCDtect: CD records authenticity detector, version 0.8.2
Copyright (c) 2004 Oleg Berngardt. All rights reserved.
Copyright (c) 2004 Alexander Djourik. All rights reserved.


FILE: 11. Green of Endless Pines.flac
Size: 34269060 Hash: D16CDFBC190F10B0AD0584B7E6719BCC Accuracy: -m0
Conclusion: CDDA 76%
Signature: F817910C252FA6CF82055B3834DD494B22C1C00A
FILE: 10. Hole Heart.flac
Size: 25514814 Hash: C3B5D59E962BA54C61FB51FE55BF9EEE Accuracy: -m0
Conclusion: MPEG 91%
Signature: C9871EB8FB767676A42358228482F4BB0B2C6596
FILE: 09. Made for Now.flac
Size: 33804799 Hash: A86BEAFC552C6E51755771ACE61E1D34 Accuracy: -m0
Conclusion: MPEG 99%
Signature: 9A0C30155D2A9D3B1ABFCED9D31ABB4CF94F81B3
FILE: 08. New World.flac
Size: 22056977 Hash: 458DC2E8B5B8A77CBF02AA8FF1D0505B Accuracy: -m0
Conclusion: CDDA 54%
Signature: 4A8EF089740268DA6B084F37AD92C3EE83CACDE3
FILE: 07. Miles And Miles.flac
Size: 27902629 Hash: 3664B904ED824D5E39D20095F6BE8AF8 Accuracy: -m0
Conclusion: CDDA 42%
Signature: AB2EF0A38856C64CFA1419FC8F94BC0B54F00BD9
FILE: 06. Inside Out.flac
Size: 20101399 Hash: 7596A5246C77311B86A531B2DD43AB7B Accuracy: -m0
Conclusion: MPEG 91%
Signature: A117E43D04994A449F992EAF2374725E438432C6
FILE: 05. Hanging On the Coast.flac
Size: 29797931 Hash: 60A6F9ADAECB7E170F7E9F456876D02B Accuracy: -m0
Conclusion: ???
Signature: 0E91BE2FB42EE26A509B50DB133F82E6C37FF137
FILE: 04. Haunt You.flac
Size: 19197107 Hash: 4C0340B833296736092280F0F9643D21 Accuracy: -m0
Conclusion: MPEG 98%
Signature: 2CFCB785C680C15615D00F0FE62A98AEA52E80EA
FILE: 03. Blood Runs Blue.flac
Size: 26163177 Hash: 5C056BD6F128C023CF0882CBAF7B43A0 Accuracy: -m0
Conclusion: CDDA 100%
Signature: 04D321A24B88CC01F65879693CD35564A8610382
FILE: 02. Jan.flac
Size: 24133604 Hash: C946B0E01C084F46687F6AF22F0C8A5C Accuracy: -m0
Conclusion: MPEG 100%
Signature: A94F50A9BC86B7832D11B1C9F6CAD7CD9647ED4C
FILE: 01. This Place Reminds Me of You.flac
Size: 23977636 Hash: B5DF5ABAC877237A3A6613CFF6AC7BB1 Accuracy: -m0
Conclusion: MPEG 100%
Signature: EC9B8F81008716AD23B102919D6244550632E340
Вверх