• Для скачивания альбомов c Облако Mail.Ru и Яндекс.Диск на нашем сайте необходимо зарегистрироваться.
  • Заказать необходимый альбом Вы можете в нашем специальном разделе "Стол заказов ".
Boy George, Culture Club - Life (2018) [WEB / FLAC / lossless]

Boy George, Culture Club - Life (2018) [WEB / FLAC / lossless]

нет прав для скачивания с cloud.mail.ru

Исполнитель: Boy George, Culture Club
Альбом: Life
Носитель: WEB альбом
Дата выпуска: 2018
Жанр: Pop
Формат: FLAC (tracks)
Битрейт: 888-1035 kbps
Продолжительность: 00:43:17
Скачать: filehost | turbobit | dfiles | douploads
Пароль на архив: grandorchestra

Треклист:
01. God & Love [00:04:13]
02.
Bad Blood [00:03:25]
03.
Human Zoo [00:03:21]
04.
Let Somebody Love You [00:03:45]
05.
What Does Sorry Mean [00:04:23]
06.
Runaway Train [00:03:31]
07.
Resting Bitch Face [00:03:40]
08.
Different Man [00:03:33]
09.
Oil & Water [00:04:37]
10.
More Than Silence [00:04:26]
11.
Life [00:04:18]

foobar2000 1.3.9 / Замер динамического диапазона (DR) 1.1.1
Дата отчёта: 2018-10-30 06:45:06

--------------------------------------------------------------------------------
Анализ: Boy George, Culture Club / Life
--------------------------------------------------------------------------------

DR Пики RMS Продолжительность трека
--------------------------------------------------------------------------------
DR6 0.00 дБ -7.79 дБ 4:13 01-God & Love
DR6 0.00 дБ -8.10 дБ 3:25 02-Bad Blood
DR6 0.00 дБ -7.22 дБ 3:22 03-Human Zoo
DR7 0.00 дБ -7.86 дБ 3:46 04-Let Somebody Love You
DR7 0.00 дБ -7.99 дБ 4:23 05-What Does Sorry Mean
DR7 0.00 дБ -8.03 дБ 3:32 06-Runaway Train
DR6 0.00 дБ -7.63 дБ 3:41 07-Resting Bitch Face
DR6 0.00 дБ -7.07 дБ 3:34 08-Different Man
DR6 0.00 дБ -7.88 дБ 4:38 09-Oil & Water
DR5 0.00 дБ -7.32 дБ 4:27 10-More Than Silence
DR7 0.00 дБ -9.57 дБ 4:18 11-Life
--------------------------------------------------------------------------------

Количество треков: 11
Реальные значения DR: DR6

Частота: 44100 Гц
Каналов: 2
Разрядность: 16
Битрейт: 893 кбит/с
Кодек: FLAC
================================================================================
-----------------------

DON'T MODIFY THIS FILE

-----------------------

PERFORMER: auCDtect Task Manager, ver. 1.6.0 RC1 build 1.6.0.1
Copyright (c) 2008-2010 y-soft. All rights reserved
http://y-soft.org

ANALYZER: auCDtect: CD records authenticity detector, version 0.8.2
Copyright (c) 2004 Oleg Berngardt. All rights reserved.
Copyright (c) 2004 Alexander Djourik. All rights reserved.


FILE: 11. Life.flac
Size: 28860864 Hash: F29AA7F083DF258518F2D04C2F69966F Accuracy: -m0
Conclusion: CDDA 100%
Signature: 60272BE787F63B0ECD5CBCB77466A6BC3D71601C
FILE: 10. More Than Silence.flac
Size: 30999600 Hash: 83AC62F9008AB5FE77D99000CFF397FD Accuracy: -m0
Conclusion: CDDA 100%
Signature: 3D668FB1DF33535404CA461E1160B664BA5A074D
FILE: 09. Oil & Water.flac
Size: 30990168 Hash: 9E3FC2D759492730969772E99424B515 Accuracy: -m0
Conclusion: CDDA 99%
Signature: 6206118E3E07A33A7DC042D5015FB1667141475A
FILE: 08. Different Man.flac
Size: 27851440 Hash: C08CDABB830C1D66D7A1604B95F91EB6 Accuracy: -m0
Conclusion: CDDA 100%
Signature: D7BF3C073D822CDE13E80AB92F139E9B4327797A
FILE: 07. Resting Bitch Face.flac
Size: 27351515 Hash: 0C9FC85B436EFF29866B0F0725654250 Accuracy: -m0
Conclusion: CDDA 100%
Signature: 29BAD14F51D321ADFDF1B2E134BAB84F1F712280
FILE: 06. Runaway Train.flac
Size: 25972862 Hash: 8375FE60C2ACA1B56361AAC064923AA5 Accuracy: -m0
Conclusion: CDDA 100%
Signature: E3D2E550464572F3CAEE94776F98BFC3694AAFB9
FILE: 05. What Does Sorry Mean.flac
Size: 29696708 Hash: E3DA2E726EEF7B6C164E7819E243A8D2 Accuracy: -m0
Conclusion: CDDA 100%
Signature: 86AF65E9DA9F96413D17328CEBD12A125FE56858
FILE: 04. Let Somebody Love You.flac
Size: 28012787 Hash: 66F83530FA3BDCFD883053EC87DD29DF Accuracy: -m0
Conclusion: CDDA 100%
Signature: 830B0D5ABEABBB1285D5372D63E1EC30A1BFC9BA
FILE: 03. Human Zoo.flac
Size: 23436604 Hash: 9E823D54D3B75646D5A00CF03242D0CA Accuracy: -m0
Conclusion: CDDA 100%
Signature: 539BB4880919699BD3698DE059908597BD180AED
FILE: 02. Bad Blood.flac
Size: 23984622 Hash: C9602BF403CD06F104A58FB01EAF6341 Accuracy: -m0
Conclusion: CDDA 100%
Signature: 9B79CCD42F0AF3DE2906686D75669BE6E30EEE34
FILE: 01. God & Love.flac
Size: 29303242 Hash: 48D5F6712A9291D728A874269E243B84 Accuracy: -m0
Conclusion: CDDA 99%
Signature: B5CCFFD6A6EEACBF481DFA7D50FA4337B5991AFB
Вверх