• Для скачивания альбомов c Облако Mail.Ru и Яндекс.Диск на нашем сайте необходимо зарегистрироваться.
  • Заказать необходимый альбом Вы можете в нашем специальном разделе "Стол заказов ".
Axel Flovent - Youthful Hearts (2018) [WEB / FLAC / lossless]

Axel Flovent - Youthful Hearts (2018) [WEB / FLAC / lossless]

нет прав для скачивания с cloud.mail.ru

Исполнитель: Axel Flovent
Альбом: Youthful Hearts
Носитель: WEB альбом
Дата выпуска: 2018
Жанр: Pop
Формат: FLAC (tracks)
Битрейт: 565-918 kbps
Продолжительность: 00:17:49
Скачать: filehost | turbobit | dfiles | douploads
Пароль на архив: grandorchestra

Треклист:
01. Youthful Hearts [00:03:40]
02.
Years [00:03:53]
03.
Close to You [00:03:37]
04.
Slow & Steady [00:03:03]
05.
Stars [00:03:33]

foobar2000 1.3.9 / Замер динамического диапазона (DR) 1.1.1
Дата отчёта: 2018-10-31 06:27:50

--------------------------------------------------------------------------------
Анализ: Axel Flovent / Youthful Hearts
--------------------------------------------------------------------------------

DR Пики RMS Продолжительность трека
--------------------------------------------------------------------------------
DR8 -0.97 дБ -10.18 дБ 3:41 1/1-Youthful Hearts
DR7 -0.98 дБ -12.30 дБ 3:54 2/2-Years
DR8 -0.96 дБ -10.10 дБ 3:38 3/3-Close to You
DR8 -0.99 дБ -12.20 дБ 3:03 4/4-Slow & Steady
DR8 -1.00 дБ -13.17 дБ 3:34 5/5-Stars
--------------------------------------------------------------------------------

Количество треков: 5
Реальные значения DR: DR8

Частота: 44100 Гц
Каналов: 2
Разрядность: 16
Битрейт: 565 кбит/с
Кодек: FLAC
================================================================================
-----------------------

DON'T MODIFY THIS FILE

-----------------------

PERFORMER: auCDtect Task Manager, ver. 1.6.0 RC1 build 1.6.0.1
Copyright (c) 2008-2010 y-soft. All rights reserved
http://y-soft.org

ANALYZER: auCDtect: CD records authenticity detector, version 0.8.2
Copyright (c) 2004 Oleg Berngardt. All rights reserved.
Copyright (c) 2004 Alexander Djourik. All rights reserved.


FILE: 05. Stars.flac
Size: 15327887 Hash: 78E63C98578889D662A30D11E3CDB901 Accuracy: -m0
Conclusion: CDDA 100%
Signature: 6EECF2142EB85ED487DE92DF0F5556D4F6AC5823
FILE: 04. Slow & Steady.flac
Size: 17699853 Hash: 0B7920F2C9F810CDE4BBBBAF28E48183 Accuracy: -m0
Conclusion: CDDA 100%
Signature: 5570C45228A97541E55F79D5EF91149ECEB7BA43
FILE: 03. Close To You.flac
Size: 24490775 Hash: 6334E1BF9D5533FE96B865DC0E9347A0 Accuracy: -m0
Conclusion: CDDA 100%
Signature: C27966529799C3E5C82F3F90716F7E7D8F6C3941
FILE: 02. Years.flac
Size: 23869688 Hash: 663A52A59B45D280AF3FB63283CCAA82 Accuracy: -m0
Conclusion: CDDA 100%
Signature: 7A9EEF0F8D86999CD95C517428CCBF6EFFDD39F5
FILE: 01. Youthful Hearts.flac
Size: 25564212 Hash: 64A36A443A6D7BA84FAC6FA6BC8C2A09 Accuracy: -m0
Conclusion: CDDA 100%
Signature: 7986466EBB22E4FE5E2CEDBFCBEA5E2F62534ADF
Вверх