• Для скачивания альбомов c Облако Mail.Ru и Яндекс.Диск на нашем сайте необходимо зарегистрироваться.
  • Заказать необходимый альбом Вы можете в нашем специальном разделе "Стол заказов ".
Andrea Bocelli - Sì (Deluxe) (2018) [WEB / FLAC / lossless]

Andrea Bocelli - Sì (Deluxe) (2018) [WEB / FLAC / lossless]

нет прав для скачивания с cloud.mail.ru
  • Автор rdf
  • Дата создания
  • Рекомендуемый

Исполнитель: Andrea Bocelli
Альбом: Sì (Deluxe)
Носитель: WEB альбом
Дата выпуска: 2018
Жанр: Classical Crossover
Формат: FLAC (tracks)
Битрейт: 490-842 kbps
Продолжительность: 01:38:12
Скачать: filehost | turbobit | dfiles
Пароль на архив: grandorchestra

01. Ali di Libertà [00:03:32]
02.
Amo Soltanto Te [00:03:20]
03.
Un'Anima [00:04:31]
04.
If Only [00:03:37]
05.
Gloria The Gift Of Life [00:03:47]
06.
Fall On Me [00:04:18]
07.
We Will Meet Once Again [00:03:55]
08.
I Am Here ( Sono Qui English Version) [00:03:49]
09.
Vertigo [00:04:35]
10.
Vivo [00:04:22]
11.
Dormi Dormi [00:04:06]
12.
Ave Maria Pietas [00:04:12]
13.
Meditation [00:04:09]
14.
Miele Impuro [00:03:09]
15.
Sono Qui (Acoustic) [00:04:25]
16.
Ali di Libertà (Acoustic) [00:03:33]
17.
Alas de Libertad ( Ali di Libertà Spanish Version) [00:03:32]
18.
Tu Eres Mi Tesoro (“If Only” Spanish Version) [00:03:39]
19.
Gloria Por La Vida ( Gloria The Gift Of Life Spanish Version) [00:03:47]
20.
Ven a Mi [00:04:18]
21.
Estoy Aquì ( Sono Qui Spanish Version) [00:03:49]
22.
Vivo Otra Vez Contigo ( Vivo Spanish Version) [00:04:22]
23.
Duerme Duerme ( Dormi Dormi Spanish Version) [00:04:06]
24.
Un Reve De Liberté ( Ali di Libertà French Version) [00:03:30]
25.
If Only (Mandarin Version) [00:03:37]

foobar2000 1.3.9 / Замер динамического диапазона (DR) 1.1.1
Дата отчёта: 2018-10-26 06:50:54

--------------------------------------------------------------------------------
Анализ: Andrea Bocelli, aMEI / Sì (Deluxe) (1)
Andrea Bocelli, Dua Lipa / Sì (Deluxe) (2)
Andrea Bocelli, Josh Groban / Sì (Deluxe) (3)
Andrea Bocelli, Matteo Bocelli / Sì (Deluxe) (4-5)
Andrea Bocelli, Аида Гарифуллина / Sì (Deluxe) (6)
Andrea Bocelli / Sì (Deluxe) (7-25)
--------------------------------------------------------------------------------

DR Пики RMS Продолжительность трека
--------------------------------------------------------------------------------
DR8 -0.09 дБ -12.79 дБ 3:37 25-If Only (Mandarin Version)
DR8 -0.05 дБ -12.61 дБ 3:37 04-If Only
DR8 -0.15 дБ -11.88 дБ 3:55 07-We Will Meet Once Again
DR9 -0.01 дБ -14.26 дБ 4:19 06-Fall On Me
DR9 -0.05 дБ -14.03 дБ 4:19 20-Ven a Mi
DR8 -0.09 дБ -12.62 дБ 4:12 12-Ave Maria Pietas
DR9 -0.06 дБ -12.63 дБ 3:33 01-Ali di Libertà
DR7 -0.09 дБ -11.40 дБ 3:21 02-Amo Soltanto Te
DR7 -0.02 дБ -10.99 дБ 4:32 03-Un'Anima
DR8 -0.05 дБ -11.40 дБ 3:47 05-Gloria The Gift Of Life
DR8 0.00 дБ -12.06 дБ 3:49 08-I Am Here ( Sono Qui English Version)
DR9 -0.06 дБ -13.41 дБ 4:36 09-Vertigo
DR9 -0.03 дБ -13.17 дБ 4:23 10-Vivo
DR9 -0.08 дБ -12.25 дБ 4:07 11-Dormi Dormi
DR10 -0.07 дБ -14.06 дБ 4:10 13-Meditation
DR9 -0.08 дБ -11.73 дБ 3:09 14-Miele Impuro
DR13 0.00 дБ -18.15 дБ 4:25 15-Sono Qui (Acoustic)
DR11 -0.66 дБ -15.36 дБ 3:34 16-Ali di Libertà (Acoustic)
DR10 -0.10 дБ -13.67 дБ 3:33 17-Alas de Libertad ( Ali di Libertà Spanish Version)
DR9 -0.09 дБ -13.04 дБ 3:39 18-Tu Eres Mi Tesoro (“If Only” Spanish Version)
DR9 -0.04 дБ -12.38 дБ 3:47 19-Gloria Por La Vida ( Gloria The Gift Of Life Spanish Version)
DR7 -0.01 дБ -11.17 дБ 3:49 21-Estoy Aquì ( Sono Qui Spanish Version)
DR9 -0.07 дБ -13.37 дБ 4:23 22-Vivo Otra Vez Contigo ( Vivo Spanish Version)
DR9 -0.09 дБ -12.26 дБ 4:07 23-Duerme Duerme ( Dormi Dormi Spanish Version)
DR10 -0.10 дБ -13.18 дБ 3:30 24-Un Reve De Liberté ( Ali di Libertà French Version)
--------------------------------------------------------------------------------

Количество треков: 25
Реальные значения DR: DR9

Частота: 44100 Гц
Каналов: 2
Разрядность: 16
Битрейт: 774 кбит/с
Кодек: FLAC
================================================================================
-----------------------

DON'T MODIFY THIS FILE

-----------------------

PERFORMER: auCDtect Task Manager, ver. 1.6.0 RC1 build 1.6.0.1
Copyright (c) 2008-2010 y-soft. All rights reserved
http://y-soft.org

ANALYZER: auCDtect: CD records authenticity detector, version 0.8.2
Copyright (c) 2004 Oleg Berngardt. All rights reserved.
Copyright (c) 2004 Alexander Djourik. All rights reserved.


FILE: 25. If Only (Mandarin Version).flac
Size: 20087711 Hash: 7064272F1F0D1A0998454567FE80DE2B Accuracy: -m0
Conclusion: CDDA 99%
Signature: 19400478C9FAF2EBB11A09329CBF69D21A7DE0E3
FILE: 24. Un Reve De Liberté ( Ali Di Libertà French Version).flac
Size: 20557020 Hash: 9480D56928CEF17FF3EE0A53A01F8C29 Accuracy: -m0
Conclusion: CDDA 100%
Signature: E5219ACE623157D7C9B4BD50F7FED5C62085B8F4
FILE: 23. Duerme Duerme ( Dormi Dormi Spanish Version).flac
Size: 22716851 Hash: E467D40A370B364515F3FDBE8478CF57 Accuracy: -m0
Conclusion: CDDA 100%
Signature: ED39C10E96D9E1ACAAF482F44DD2939493CA229A
FILE: 22. Vivo Otra Vez Contigo ( Vivo Spanish Version).flac
Size: 26311122 Hash: 95818385E8BC96E9EDA1459B52BEA6BA Accuracy: -m0
Conclusion: CDDA 100%
Signature: C5B7A9F69F2ED50497DC3FAD5AD2BE546CBFDC19
FILE: 21. Estoy Aquì ( Sono Qui Spanish Version).flac
Size: 23000170 Hash: 50E99D9B873FF20B70ED30AE24074C46 Accuracy: -m0
Conclusion: CDDA 100%
Signature: B5EF0A7E750E38C76AFB331B46B0EF85EE1D6E6D
FILE: 20. Ven A Mi.flac
Size: 24230821 Hash: F28974A723C4CEB67E4B1DD6BED21D09 Accuracy: -m0
Conclusion: CDDA 100%
Signature: 7F0CAD9DE26FE2E79D3B6710858AF030486C94FD
FILE: 19. Gloria Por La Vida ( Gloria The Gift Of Life Spanish Version).flac
Size: 22969482 Hash: 4A52B647EEEAC4B5C4B6A8B70A7808EA Accuracy: -m0
Conclusion: CDDA 100%
Signature: 485C198A1A3BD0FA38DDA791CA34CF0BDB0C4A3E
FILE: 18. Tu Eres Mi Tesoro (“if Only” Spanish Version).flac
Size: 20525530 Hash: 35D3A4C5517A3147C7D4FD69A8E61641 Accuracy: -m0
Conclusion: CDDA 99%
Signature: 7EA3DFDCAFEA86DCBD21CCCCE0528B45EEEB2E77
FILE: 17. Alas De Libertad ( Ali Di Libertà Spanish Version).flac
Size: 20323983 Hash: 3389D802603D00A00AC512A01B420B8D Accuracy: -m0
Conclusion: CDDA 100%
Signature: 493BB24CA154B4CFA7B9C8C704D62AA6F5409E36
FILE: 16. Ali Di Libertà (Acoustic).flac
Size: 18091086 Hash: 4E37C1637B03944D65279379A86D5E28 Accuracy: -m0
Conclusion: CDDA 100%
Signature: 52B2D98EAB0E86B4EA94494583BC7209B14B8775
FILE: 15. Sono Qui (Acoustic).flac
Size: 16453782 Hash: 39C491E7C7FEE1CDCDCF54B48C7E41C7 Accuracy: -m0
Conclusion: CDDA 100%
Signature: 2582A5899BFB090AC1017DA83359BC96ECFB8740
FILE: 14. Miele Impuro.flac
Size: 19667008 Hash: 3CB5E713879B403804E3B93806F22703 Accuracy: -m0
Conclusion: CDDA 100%
Signature: E512DE2FFB89C0B70AC745F33A4D77309B904677
FILE: 13. Meditation.flac
Size: 23327730 Hash: BFD7187BD086C95FE4A75E069F241147 Accuracy: -m0
Conclusion: CDDA 100%
Signature: F89F2C40ED9EC4724301403E733ABC7269C5AF05
FILE: 12. Ave Maria Pietas.flac
Size: 23579411 Hash: B6E3D982A791670AAE8B3E8A7B16565A Accuracy: -m0
Conclusion: CDDA 100%
Signature: 2560609172F7AC06FC0B9095EC3A96BEFF549BA4
FILE: 11. Dormi Dormi.flac
Size: 23398594 Hash: D859113A64FCF3BD26BA1729BCAC8E4A Accuracy: -m0
Conclusion: CDDA 100%
Signature: 0AA33AD99C888F494858C1BA87523C6C70C4893A
FILE: 10. Vivo.flac
Size: 27099208 Hash: F9776CD99D0AA327AC63D5F85DE4E1A7 Accuracy: -m0
Conclusion: CDDA 100%
Signature: 2EC64E1ECD0A37B908CF7028F58D0B032EC97501
FILE: 09. Vertigo.flac
Size: 26290677 Hash: 7505E67C2D3B79EF8CB4C1F5B94661A8 Accuracy: -m0
Conclusion: CDDA 100%
Signature: 2D5C347DC01B91549884B9C0B0905D53314295F8
FILE: 08. I Am Here ( Sono Qui English Version).flac
Size: 23501562 Hash: 044782B677D9A29F7971F0D4067885B7 Accuracy: -m0
Conclusion: CDDA 99%
Signature: C6DF6254CC93C9400B824E1C520CA9CC07D044BB
FILE: 07. We Will Meet Once Again.flac
Size: 24487493 Hash: 1E54854CA47226192FD422B1828C309D Accuracy: -m0
Conclusion: CDDA 100%
Signature: B32FFD55C2EA1C7CBB1A229953E2B934210BC53E
FILE: 06. Fall On Me.flac
Size: 23994837 Hash: 9C24E705DB69D4043426F02FF850DF08 Accuracy: -m0
Conclusion: CDDA 100%
Signature: B90A33E686C844F24576CD1951D454F08B9AEEF3
FILE: 05. Gloria The Gift Of Life.flac
Size: 23794965 Hash: 3CC4C4432A4D183DF2A319931C7F8320 Accuracy: -m0
Conclusion: CDDA 100%
Signature: 735AFFB39CA70483026EB793BFBEF5589DDB2075
FILE: 04. If Only.flac
Size: 21464432 Hash: 0C52984BE6920F0F7B5EA2B01D966317 Accuracy: -m0
Conclusion: CDDA 100%
Signature: AAA926BB56A6E91A6ED872409BA1C92071C65F0B
FILE: 03. Un'anima.flac
Size: 28786775 Hash: F55B0E7B4B5F9C1603DB7DDDAEA2585F Accuracy: -m0
Conclusion: CDDA 100%
Signature: 68A3CCFB418CB4A49A9ECDB57AF239C91519DF94
FILE: 02. Amo Soltanto Te.flac
Size: 20006889 Hash: 292C75E68A49253462CCF15CA98F4342 Accuracy: -m0
Conclusion: CDDA 99%
Signature: 39426560FC07B4F5ABA3811F23B2BCE53BDF2439
FILE: 01. Ali Di Libertà.flac
Size: 21118896 Hash: 6016318D58477817913314C9471B14CF Accuracy: -m0
Conclusion: CDDA 100%
Signature: 9C79CF5A1D783EA320026C31260A23F627CB2427
Вверх