• Для скачивания альбомов c Облако Mail.Ru и Яндекс.Диск на нашем сайте необходимо зарегистрироваться.
  • Заказать необходимый альбом Вы можете в нашем специальном разделе "Стол заказов ".
92 Keys - Spring of Fire (2018) [WEB / FLAC / lossless]

92 Keys - Spring of Fire (2018) [WEB / FLAC / lossless]

нет прав для скачивания с cloud.mail.ru

Исполнитель: 92 Keys
Альбом: Spring of Fire
Носитель: WEB альбом
Дата выпуска: 2018
Жанр: Classical Crossover
Формат: FLAC (tracks)
Битрейт: 518-918 kbps
Продолжительность: 00:45:26
Пароль на архив: grandorchestra

Треклист:
01. I See Fire (feat. Rob Landes) [00:03:48]
02.
Ode to Joy (feat. Anastasiia Mazurok) [00:02:52]
03.
Beauty and the Beast (feat. Siobhán Cronin) [00:04:33]
04.
Rolling in the Deep (feat. Chloé Trevor) [00:03:07]
05.
Stoopid Saung [00:03:47]
06.
Somebody to Love (feat. Erica Swindell) [00:04:18]
07.
What a Wonderful World (feat. Sonsoles Llodrá) [00:03:28]
08.
Be Thou My Vision (feat. Jenny Oaks Baker) [00:04:13]
09.
Life and Death (feat. Jennifer Thomas) [00:03:37]
10.
Jordan's Song [00:04:12]
11.
Remembrance [00:05:01]
12.
How Far I'll Go (feat. Glen McDaniel) [00:02:25]

foobar2000 1.3.9 / Замер динамического диапазона (DR) 1.1.1
Дата отчёта: 2018-10-13 22:09:36

--------------------------------------------------------------------------------
Анализ: 92 Keys / Spring of Fire
--------------------------------------------------------------------------------

DR Пики RMS Продолжительность трека
--------------------------------------------------------------------------------
DR8 -0.10 дБ -10.76 дБ 3:48 01-I See Fire (feat. Rob Landes)
DR7 -0.10 дБ -9.67 дБ 2:52 02-Ode to Joy (feat. Anastasiia Mazurok)
DR8 -0.10 дБ -12.63 дБ 4:33 03-Beauty and the Beast (feat. Siobhán Cronin)
DR8 -0.10 дБ -10.80 дБ 3:08 04-Rolling in the Deep (feat. Chloé Trevor)
DR8 -0.10 дБ -11.48 дБ 3:47 05-Stoopid Saung
DR9 -0.10 дБ -11.91 дБ 4:18 06-Somebody to Love (feat. Erica Swindell)
DR7 -0.10 дБ -11.49 дБ 3:29 07-What a Wonderful World (feat. Sonsoles Llodrá)
DR8 -0.10 дБ -12.28 дБ 4:14 08-Be Thou My Vision (feat. Jenny Oaks Baker)
DR9 -0.10 дБ -13.99 дБ 3:38 09-Life and Death (feat. Jennifer Thomas)
DR7 -0.10 дБ -9.73 дБ 4:13 10-Jordan's Song
DR11 -0.55 дБ -15.76 дБ 5:02 11-Remembrance
DR6 -0.10 дБ -8.19 дБ 2:25 12-How Far I'll Go (feat. Glen McDaniel)
--------------------------------------------------------------------------------

Количество треков: 12
Реальные значения DR: DR8

Частота: 44100 Гц
Каналов: 2
Разрядность: 16
Битрейт: 881 кбит/с
Кодек: FLAC
================================================================================
-----------------------

DON'T MODIFY THIS FILE

-----------------------

PERFORMER: auCDtect Task Manager, ver. 1.6.0 RC1 build 1.6.0.1
Copyright (c) 2008-2010 y-soft. All rights reserved
http://y-soft.org

ANALYZER: auCDtect: CD records authenticity detector, version 0.8.2
Copyright (c) 2004 Oleg Berngardt. All rights reserved.
Copyright (c) 2004 Alexander Djourik. All rights reserved.


FILE: 12. How Far I'll Go (feat. Glen McDaniel).flac
Size: 16257660 Hash: 2CDA355A456AAFE0E85BC474CA28FC96 Accuracy: -m0
Conclusion: CDDA 100%
Signature: 9C7D417AFA2BE71589BFD7DDB98AF369202C8B62
FILE: 11. Remembrance.flac
Size: 19834908 Hash: 908DA3E346C42E29DE98C7846CDF68DB Accuracy: -m0
Conclusion: MPEG 93%
Signature: 91ABA688C57B73481F78B582FE78B63B1521580D
FILE: 10. Jordan's Song.flac
Size: 26715174 Hash: 6CD10B91583583187AE313616B89F826 Accuracy: -m0
Conclusion: CDDA 100%
Signature: 76D2C06299FED3B1A3777FB0E1C91DA04E5C9B82
FILE: 09. Life and Death (feat. Jennifer Thomas).flac
Size: 20470454 Hash: 3276A9BAF6677CE1B02D855EA4ADB62A Accuracy: -m0
Conclusion: CDDA 87%
Signature: 3F30DC66C38B26F9CA0C809B697F86FCC147C189
FILE: 08. Be Thou My Vision (feat. Jenny Oaks Baker).flac
Size: 24297713 Hash: 755E3424E096AF6E5F6E1C6E7E4E5329 Accuracy: -m0
Conclusion: CDDA 100%
Signature: 156D6976394895F773BEDBA4475C74BAE8EC774B
FILE: 07. What a Wonderful World (feat. Sonsoles Llodrá).flac
Size: 21221546 Hash: 271AC3DECA1D4A099A304BE265546568 Accuracy: -m0
Conclusion: CDDA 76%
Signature: 72FC3DB28EF1EF7E93A015BD6B71B2DC420C7075
FILE: 06. Somebody to Love (feat. Erica Swindell).flac
Size: 27337806 Hash: 52BF35E5FDCB1C1ED7E829397AF3BCEB Accuracy: -m0
Conclusion: CDDA 100%
Signature: 6873B6DBABEA1049A1BC49418D6864160BF13B37
FILE: 05. Stoopid Saung.flac
Size: 21707609 Hash: AC76769200780735C53E4C936347012F Accuracy: -m0
Conclusion: CDDA 100%
Signature: 6225B042413BCA3F831056218E9B1BF00EA7263B
FILE: 04. Rolling in the Deep (feat. Chloé Trevor).flac
Size: 20509225 Hash: C9DE5F512B3F5B73FE719B97E00A9193 Accuracy: -m0
Conclusion: CDDA 100%
Signature: D8EE0F314CB051D634E2B2D009674157BE9B669A
FILE: 03. Beauty and the Beast (feat. Siobhán Cronin).flac
Size: 26972053 Hash: 47702DC3A4DE749714D5344C533E5B34 Accuracy: -m0
Conclusion: CDDA 100%
Signature: 5500B31B8DF154D781BF3BC456FACAE6A3B56319
FILE: 02. Ode to Joy (feat. Anastasiia Mazurok).flac
Size: 18339930 Hash: 6EA6CF99B9208F4A55FEB786AA72B5B9 Accuracy: -m0
Conclusion: CDDA 100%
Signature: 43F53FF3793F9580EB8F10AB126B061D66851A03
FILE: 01. I See Fire (feat. Rob Landes).flac
Size: 26469732 Hash: 7D6827FE0943D9D7934156FA81E503BF Accuracy: -m0
Conclusion: CDDA 100%
Signature: B9D8C3F4E75F8EAE2E8B330BDDECA9AF1A8B8B95
Вверх