• Для скачивания альбомов c Облако Mail.Ru и Яндекс.Диск на нашем сайте необходимо зарегистрироваться.
  • Заказать необходимый альбом Вы можете в нашем специальном разделе "Стол заказов ".
7and5 - Seven (2018) [WEB / FLAC / lossless]

7and5 - Seven (2018) [WEB / FLAC / lossless]

нет прав для скачивания с cloud.mail.ru
  • Автор rdf
  • Дата создания
  • Рекомендуемый

Исполнитель: 7and5
Альбом: Seven
Носитель: WEB альбом
Дата выпуска: 2018
Жанр: New Age
Формат: FLAC (tracks)
Битрейт: 733-960 kbps
Продолжительность: 00:46:29
Пароль на архив: grandorchestra

Треклист:
01. Array of Lights [00:04:17]
02.
Hearts on Fire [00:03:19]
03.
A View from Above [00:04:01]
04.
Pause and Rewind [00:04:03]
05.
Time in Motion [00:04:38]
06.
Shimmering Lights [00:04:34]
07.
Van Gogh [00:04:24]
08.
Awaken [00:04:01]
09.
September [00:03:44]
10.
Distant Lighthouse [00:04:35]
11.
Seven [00:04:47]

foobar2000 1.3.9 / Замер динамического диапазона (DR) 1.1.1
Дата отчёта: 2018-10-13 10:01:45

--------------------------------------------------------------------------------
Анализ: 7and5 / Seven
--------------------------------------------------------------------------------

DR Пики RMS Продолжительность трека
--------------------------------------------------------------------------------
DR7 -0.30 дБ -8.68 дБ 4:18 01-Array of Lights
DR7 -0.30 дБ -9.15 дБ 3:19 02-Hearts on Fire
DR7 -0.30 дБ -9.63 дБ 4:02 03-A View from Above
DR6 -0.30 дБ -7.59 дБ 4:03 04-Pause and Rewind
DR7 -0.30 дБ -10.29 дБ 4:38 05-Time in Motion
DR7 -0.30 дБ -9.35 дБ 4:35 06-Shimmering Lights
DR7 -0.30 дБ -9.94 дБ 4:25 07-Van Gogh
DR7 -0.30 дБ -8.49 дБ 4:02 08-Awaken
DR7 -0.30 дБ -9.40 дБ 3:44 09-September
DR7 -0.30 дБ -8.58 дБ 4:35 10-Distant Lighthouse
DR8 -0.30 дБ -10.72 дБ 4:48 11-Seven
--------------------------------------------------------------------------------

Количество треков: 11
Реальные значения DR: DR7

Частота: 44100 Гц
Каналов: 2
Разрядность: 16
Битрейт: 764 кбит/с
Кодек: FLAC
================================================================================
-----------------------

DON'T MODIFY THIS FILE

-----------------------

PERFORMER: auCDtect Task Manager, ver. 1.6.0 RC1 build 1.6.0.1
Copyright (c) 2008-2010 y-soft. All rights reserved
http://y-soft.org

ANALYZER: auCDtect: CD records authenticity detector, version 0.8.2
Copyright (c) 2004 Oleg Berngardt. All rights reserved.
Copyright (c) 2004 Alexander Djourik. All rights reserved.


FILE: 11. Seven.flac
Size: 27756893 Hash: B0015EB521C7C2B6E6550A9B94F610AE Accuracy: -m0
Conclusion: MPEG 95%
Signature: A94F5A1D59A8728F1628C1D50101AA376E911F2F
FILE: 10. Distant Lighthouse.flac
Size: 29015502 Hash: 7B642312E47BF2B00B76D5E03069FBDD Accuracy: -m0
Conclusion: MPEG 95%
Signature: 4F0E6439D7FB5FF92A92AF071EEA51580A939FC3
FILE: 09. September.flac
Size: 26061906 Hash: 9115A822800818BC5511585288B5A1F0 Accuracy: -m0
Conclusion: CDDA 100%
Signature: 7A38D248EDF3143C1B169FF4FC9EB17908BFD6F2
FILE: 08. Awaken.flac
Size: 26508134 Hash: 7B44567115AE73B6D991D7738F20334F Accuracy: -m0
Conclusion: MPEG 95%
Signature: 6B302F3D68D4E961CE8A608D5E86C87EA2C222A2
FILE: 07. Van Gogh.flac
Size: 27896186 Hash: 437BDDB11D90FB5DC3A4ED6093767097 Accuracy: -m0
Conclusion: MPEG 95%
Signature: 89A49E4548030F5229EC84CE5A61C6DE8092C990
FILE: 06. Shimmering Lights.flac
Size: 29253809 Hash: 178BBBE80FF1305AFA1C5C22F4698880 Accuracy: -m0
Conclusion: MPEG 95%
Signature: 28032D0997A5D897EFFB3D0F060EBBA687C4FD6D
FILE: 05. Time in Motion.flac
Size: 25795663 Hash: 69803B55483874427AFB1F2848BD72E6 Accuracy: -m0
Conclusion: CDDA 100%
Signature: BD7F053F7DB5DEDDEBF55AF9159E5FD00F927EFF
FILE: 04. Pause and Rewind.flac
Size: 29489989 Hash: 2C5E03041E45F5F0B885FB241D9E8858 Accuracy: -m0
Conclusion: MPEG 98%
Signature: 6CC2AFFEB6A95BA7540009CEE255D85C43644047
FILE: 03. A View from Above.flac
Size: 25723034 Hash: 4B82B0C282CD921AE322C3B28A44F3F1 Accuracy: -m0
Conclusion: MPEG 95%
Signature: C51FD0B53594011B995271E1D9C23BC8D44E770B
FILE: 02. Hearts on Fire.flac
Size: 21145622 Hash: 21597466944ED6CAF811FD422E1C4F47 Accuracy: -m0
Conclusion: MPEG 95%
Signature: 1CB1AA4C02DC794C9F04E361D2A50432D83C5711
FILE: 01. Array of Lights.flac
Size: 28211689 Hash: 835E21376F9CC33D7345B1A039B9681B Accuracy: -m0
Conclusion: CDDA 42%
Signature: 34FABF9572CBD64BBF71350202E49B8E96222DE7
Вверх