• Для скачивания альбомов c Облако Mail.Ru и Яндекс.Диск на нашем сайте необходимо зарегистрироваться.
  • Заказать необходимый альбом Вы можете в нашем специальном разделе "Стол заказов ".
2Cellos - Let There Be Cello (2018) [WEB / FLAC / lossless]

2Cellos - Let There Be Cello (2018) [WEB / FLAC / lossless]

нет прав для скачивания с cloud.mail.ru
  • Автор rdf
  • Дата создания
  • Рекомендуемый

Исполнитель: 2Cellos
Альбом: Let There Be Cello
Носитель: WEB альбом
Дата выпуска: 2018
Жанр: Classical Crossover
Формат: FLAC (tracks)
Битрейт: 477-955 kbps
Продолжительность: 00:42:05
Релиз: СЛИМ (Сообщество любителей инструментальной музыки)
Скачать: filehost | turbobit | dfiles
Пароль на архив: grandorchestra

Треклист:
01. Concept2 [00:02:08]
02.
Eye of the Tiger [00:04:04]
03.
Pirates of the Caribbean [00:03:00]
04.
Cadenza [00:01:17]
05.
Hallelujah [00:03:37]
06.
Perfect [00:03:44]
07.
Vivaldi Storm [00:02:33]
08.
Whole Lotta Love [00:04:11]
09.
Seven Nation Army [00:02:39]
10.
Asturias Meets Carmen [00:02:40]
11.
Despacito [00:02:27]
12.
The Show Must Go On [00:04:37]
13.
Imagine [00:02:59]
14.
Champions Anthem [00:02:02]

foobar2000 1.3.9 / Замер динамического диапазона (DR) 1.1.1
Дата отчёта: 2018-10-21 16:30:03

--------------------------------------------------------------------------------
Анализ: 2Cellos / Let There Be Cello
--------------------------------------------------------------------------------

DR Пики RMS Продолжительность трека
--------------------------------------------------------------------------------
DR6 -0.10 дБ -8.83 дБ 2:09 01-Concept2
DR5 -0.10 дБ -7.83 дБ 4:05 02-Eye of the Tiger
DR5 -0.10 дБ -7.75 дБ 3:00 03-Pirates of the Caribbean
DR8 -2.76 дБ -15.83 дБ 1:18 04-Cadenza
DR12 -0.10 дБ -16.74 дБ 3:37 05-Hallelujah
DR10 -0.58 дБ -14.77 дБ 3:44 06-Perfect
DR7 -0.10 дБ -9.38 дБ 2:34 07-Vivaldi Storm
DR7 -0.10 дБ -9.60 дБ 4:12 08-Whole Lotta Love
DR6 -0.10 дБ -7.54 дБ 2:39 09-Seven Nation Army
DR7 -0.10 дБ -9.50 дБ 2:40 10-Asturias Meets Carmen
DR7 -0.10 дБ -11.00 дБ 2:27 11-Despacito
DR7 -0.10 дБ -10.27 дБ 4:38 12-The Show Must Go On
DR13 -1.28 дБ -19.47 дБ 2:59 13-Imagine
DR5 -0.99 дБ -8.75 дБ 2:03 14-Champions Anthem
--------------------------------------------------------------------------------

Количество треков: 14
Реальные значения DR: DR8

Частота: 44100 Гц
Каналов: 2
Разрядность: 16
Битрейт: 956 кбит/с
Кодек: FLAC
================================================================================
-----------------------

DON'T MODIFY THIS FILE

-----------------------

PERFORMER: auCDtect Task Manager, ver. 1.6.0 RC1 build 1.6.0.1
Copyright (c) 2008-2010 y-soft. All rights reserved
http://y-soft.org

ANALYZER: auCDtect: CD records authenticity detector, version 0.8.2
Copyright (c) 2004 Oleg Berngardt. All rights reserved.
Copyright (c) 2004 Alexander Djourik. All rights reserved.


FILE: 14. Champions Anthem.flac
Size: 14995719 Hash: 6AE15601857F9BB8B614256BB9C6C125 Accuracy: -m0
Conclusion: CDDA 99%
Signature: 5CC510475D5668A6BFC251751DAE1223A73F40B3
FILE: 13. Imagine.flac
Size: 10994189 Hash: 3BD9162572AF3C81D8801DA220795646 Accuracy: -m0
Conclusion: MPEG 91%
Signature: 38AD3FB24EE8284B029EF8EA872A812664C96403
FILE: 12. The Show Must Go On.flac
Size: 28059387 Hash: DCA35C1BCFC48841357E9E21789C765F Accuracy: -m0
Conclusion: CDDA 99%
Signature: BD30A36393812E60D92F59E26C576FA08BF36A7F
FILE: 11. Despacito.flac
Size: 14019370 Hash: F4D24D34DC05DF9555032BDF116F8DF4 Accuracy: -m0
Conclusion: CDDA 100%
Signature: 2331B15CBCDAB8A0C3B47FE90108EC746C2DF290
FILE: 10. Asturias Meets Carmen.flac
Size: 17783502 Hash: EF6FEB59F38C304BE494784AF32FA82A Accuracy: -m0
Conclusion: CDDA 100%
Signature: A6D11804498389CE46E3871CFED6EDA80052CCC1
FILE: 09. Seven Nation Army.flac
Size: 17076253 Hash: FF4070EB3C6594BFE8608B61F343C7BA Accuracy: -m0
Conclusion: CDDA 99%
Signature: 51EACD31A7331D05D29E725ABA03A176C33911B7
FILE: 08. Whole Lotta Love.flac
Size: 28466325 Hash: 9F36ECED51E2032CEE44F02D3B40DA1F Accuracy: -m0
Conclusion: CDDA 100%
Signature: D2CB49B37DEDF054D524C4F3379DF59D0EBF24E2
FILE: 07. Vivaldi Storm.flac
Size: 15995992 Hash: F5D365A044D9F3F670FDD55A3AF9DCB9 Accuracy: -m0
Conclusion: CDDA 99%
Signature: B27B6C23C3440773565BBB35BF2632474B462D90
FILE: 06. Perfect.flac
Size: 18576398 Hash: B7B7EB938E706B5FE1A78403D9DD604C Accuracy: -m0
Conclusion: CDDA 99%
Signature: E4B1D040477052AFADDC06D179DD232D0203BCEE
FILE: 05. Hallelujah.flac
Size: 15579726 Hash: C3BC0833AF759EB5BC4931B0145A6E7C Accuracy: -m0
Conclusion: MPEG 100%
Signature: 6ED4B2C36C60818DF385EF722D8C28A7A569F14D
FILE: 04. Cadenza.flac
Size: 5315487 Hash: 96AC0F6BDB01E2C8CEF5AC0EDECBD324 Accuracy: -m0
Conclusion: MPEG 100%
Signature: 612CB2A8CEFAAA37B2289430A1F62B470AF77B59
FILE: 03. Pirates of the Caribbean.flac
Size: 20056438 Hash: A812C2BFAA33BCF52CFBC0F22EF5BD18 Accuracy: -m0
Conclusion: CDDA 99%
Signature: 68E859055EAF3057642A2880C8DDBA8935C1F28E
FILE: 02. Eye of the Tiger.flac
Size: 27039317 Hash: 6281192336CA49DA5849C9D33B3E32E6 Accuracy: -m0
Conclusion: CDDA 100%
Signature: 28DD9D15EDF97F9E1F77130F6F8CD0DE9717CBCE
FILE: 01. Concept2.flac
Size: 12386349 Hash: 43D3FB2817FD6596CC9C37C0F05B064F Accuracy: -m0
Conclusion: CDDA 100%
Signature: B2C45672C38546AE4CA5E65F6B851FF21FB2A7C9
Вверх