• Для скачивания альбомов c Облако Mail.Ru и Яндекс.Диск на нашем сайте необходимо зарегистрироваться.
  • Заказать необходимый альбом Вы можете в нашем специальном разделе "Стол заказов ".
ātman - Tales from the Jungle (2017) [WEB / FLAC / lossless]

ātman - Tales from the Jungle (2017) [WEB / FLAC / lossless]

нет прав для скачивания с cloud.mail.ru
  • Автор rdf
  • Дата создания
  • Рекомендуемый

Исполнитель: ātman
Альбом: Tales from the Jungle
Носитель: WEB альбом
Дата выпуска: 2017
Жанр: Ambient
Формат: FLAC (tracks)
Битрейт: 602-939 kbps
Продолжительность: 01:06:22
Скачать: filehost | turbobit | dfiles
Пароль на архив: grandorchestra

Треклист:
01. The Shapeshifting Spirit, Pt. 1 [00:02:35]
02. Tales from the Jungle [00:05:43]
03. Kodama [00:03:35]
04. Enchanted Drums [00:04:12]
05. Deep in the Forest, Pt. 1 [00:05:07]
06. Tricksters and Fools [00:03:23]
07. Bat Flies by Night [00:02:18]
08. When the Wild Wind Blows [00:03:29]
09. Walking Lights [00:02:46]
10. The Orphan Boy and the Magic Stone [00:02:41]
11. Elephant and Thunder [00:04:07]
12. The Blind Fisherman [00:03:34]
13. King Cobra [00:06:10]
14. The Ghost Country [00:04:00]
15. Perfumed Sky [00:03:25]
16. Deep in the Forest, Pt. 2 [00:06:23]
17. The Shapeshifting Spirit, Pt. 2 [00:02:46]

foobar2000 1.3.9 / Замер динамического диапазона (DR) 1.1.1
Дата отчёта: 2018-10-27 10:06:01

--------------------------------------------------------------------------------
Анализ: ātman / Tales from the Jungle
--------------------------------------------------------------------------------

DR Пики RMS Продолжительность трека
--------------------------------------------------------------------------------
DR6 0.00 дБ -8.21 дБ 2:36 01-The Shapeshifting Spirit, Pt. 1
DR8 0.00 дБ -10.33 дБ 5:44 02-Tales from the Jungle
DR8 0.00 дБ -9.79 дБ 3:35 03-Kodama
DR8 0.00 дБ -11.22 дБ 4:12 04-Enchanted Drums
DR8 0.00 дБ -10.60 дБ 5:07 05-Deep in the Forest, Pt. 1
DR9 0.00 дБ -11.23 дБ 3:23 06-Tricksters and Fools
DR10 0.00 дБ -12.70 дБ 2:18 07-Bat Flies by Night
DR9 0.00 дБ -11.75 дБ 3:30 08-When the Wild Wind Blows
DR8 0.00 дБ -11.29 дБ 2:46 09-Walking Lights
DR8 0.00 дБ -10.38 дБ 2:41 10-The Orphan Boy and the Magic Stone
DR9 0.00 дБ -10.57 дБ 4:08 11-Elephant and Thunder
DR8 0.00 дБ -9.79 дБ 3:34 12-The Blind Fisherman
DR8 0.00 дБ -10.41 дБ 6:10 13-King Cobra
DR7 0.00 дБ -8.55 дБ 4:00 14-The Ghost Country
DR12 0.00 дБ -14.46 дБ 3:26 15-Perfumed Sky
DR7 0.00 дБ -9.14 дБ 6:24 16-Deep in the Forest, Pt. 2
DR6 0.00 дБ -6.90 дБ 2:47 17-The Shapeshifting Spirit, Pt. 2
--------------------------------------------------------------------------------

Количество треков: 17
Реальные значения DR: DR8

Частота: 44100 Гц
Каналов: 2
Разрядность: 16
Битрейт: 715 кбит/с
Кодек: FLAC
================================================================================
-----------------------

DON'T MODIFY THIS FILE

-----------------------

PERFORMER: auCDtect Task Manager, ver. 1.6.0 RC1 build 1.6.0.1
Copyright (c) 2008-2010 y-soft. All rights reserved
http://y-soft.org

ANALYZER: auCDtect: CD records authenticity detector, version 0.8.2
Copyright (c) 2004 Oleg Berngardt. All rights reserved.
Copyright (c) 2004 Alexander Djourik. All rights reserved.


FILE: 17. The Shapeshifting Spirit, Pt. 2.flac
Size: 15699641 Hash: 65113B7A957DD8239066A612ADEE8B80 Accuracy: -m0
Conclusion: CDDA 100%
Signature: 786747B878E06E3ABBD21781E12F575FC4864FB0
FILE: 16. Deep in the Forest, Pt. 2.flac
Size: 45878843 Hash: 442C334AF4F250D34345EC81E217C9A1 Accuracy: -m0
Conclusion: CDDA 100%
Signature: 563C07D1C5793AF2B5FFEC534A79107CD7F80A9E
FILE: 15. Perfumed Sky.flac
Size: 23963172 Hash: CD5BD7DD46661CBCC13358A738EA9B71 Accuracy: -m0
Conclusion: CDDA 100%
Signature: 53E6E22CEE1574ED95B512BA8966A0057EDB0287
FILE: 14. The Ghost Country.flac
Size: 26288596 Hash: 9184449FFC7FAAEA94B39A695301C589 Accuracy: -m0
Conclusion: CDDA 100%
Signature: 931B0B8876C42A18C22DE859C33BF24FCFE969FA
FILE: 13. King Cobra.flac
Size: 38013144 Hash: A77B8D6955DDC3995E10779D9F8F429C Accuracy: -m0
Conclusion: CDDA 100%
Signature: 62A7738F47F0BC1088E1B7B282BF2B4A097D4CC6
FILE: 12. The Blind Fisherman.flac
Size: 23257574 Hash: 3CFB5A1273782A5DA7977D49B715F3C3 Accuracy: -m0
Conclusion: CDDA 100%
Signature: 6206417FC0F99334EFFE4DE9A2EDFA7895A3A9CF
FILE: 11. Elephant and Thunder.flac
Size: 23605710 Hash: BA0B3C84C086E9C8F806E7D9834E9659 Accuracy: -m0
Conclusion: CDDA 100%
Signature: 698D38521527BD1284BAC54E34D3620CE1A1FA47
FILE: 10. The Orphan Boy and the Magic Stone.flac
Size: 15076405 Hash: 992BB9E9B87E0DFBEBCB159EC2116C8F Accuracy: -m0
Conclusion: CDDA 100%
Signature: 32A97E30560DE470449309B7B08E6EEFF55A6F3D
FILE: 09. Walking Lights.flac
Size: 13428186 Hash: 6A94737693F2B2314D3390AAAD36FE2D Accuracy: -m0
Conclusion: CDDA 100%
Signature: 09E092D2B0053072F872DBA1E70A7E61406ED9B5
FILE: 08. When the Wild Wind Blows.flac
Size: 22360710 Hash: ACCF54C1FB5B1DC4FCA29961A9B651A9 Accuracy: -m0
Conclusion: CDDA 100%
Signature: 54CEE96D75EEE63F20825EF48DECA68C4B408A4E
FILE: 07. Bat Flies by Night.flac
Size: 11678302 Hash: 6DC9C4880DEE31A8BFACAF34B4C8755E Accuracy: -m0
Conclusion: CDDA 100%
Signature: 58346097FECC8312454FD8A2E71C67D589F3933E
FILE: 06. Tricksters and Fools.flac
Size: 21034183 Hash: 052960D2C34B0431FC4F8880E3878134 Accuracy: -m0
Conclusion: CDDA 100%
Signature: 2653888CC80C6B8E4483791039A0A52A2D58E662
FILE: 05. Deep in the Forest, Pt. 1.flac
Size: 30346804 Hash: B461CF061131204722A9CF724727E4CF Accuracy: -m0
Conclusion: CDDA 100%
Signature: D83848D96F678C065CB6E5CD1E8A07ABBFA51927
FILE: 04. Enchanted Drums.flac
Size: 26604967 Hash: 6ED3FC2654945F6654B0EC1CF34D5FD6 Accuracy: -m0
Conclusion: CDDA 100%
Signature: 8277D7A7ABEDF94F8568DBA45C1DEE14BDC7A008
FILE: 03. Kodama.flac
Size: 19349446 Hash: DB7954BB45107CB23DF7FE77545A6E36 Accuracy: -m0
Conclusion: CDDA 100%
Signature: 566870A01E6B732840493D42ACCFE4ED85D25B1F
FILE: 02. Tales from the Jungle.flac
Size: 26708129 Hash: DE9D6B44900E6AF2F286C77FF15482E8 Accuracy: -m0
Conclusion: CDDA 100%
Signature: CB541D549933A9AE3C12F3D78EDBDEEDFB34C983
FILE: 01. The Shapeshifting Spirit, Pt. 1.flac
Size: 15004339 Hash: 51F3A2169BBC78C7B664B62C254B4D23 Accuracy: -m0
Conclusion: CDDA 100%
Signature: D59A9E88939879B313C146586A870AD73100FC8D
Вверх